Важное объявление!
У Нас Все раздачи мультитрекерные, при нуле пиров в релизах, можете смело вставать на закачку!
Статистика раздачи
Размер:     |    Зарегистрирован:     |    Скачан:     |   
Нет
 
     
 
 
Автор Сообщение

HUNTER

Стаж:
5 лет 1 месяц
Сообщений:
68439

Репутация: 101

[+] [-]
Вне форума [Профиль] [ЛС]

Победительница / Moondance Alexander
Страна: США
Жанр: семейный, драма
Год выпуска: 2007
Продолжительность: 01:29:44
Перевод 1: Профессиональный (многоголосый закадровый)
Перевод 2: Профессиональный (двухголосый закадровый)
Cубтитры: английские
Оригинальная аудиодорожка: английский-Режиссер: Майкл Дамиан / Michael Damian-В ролях: Кей Панабейкер, Дон Джонсон, Лори Лахлин, Джеймс Бест, Саша Коэн, Уитни Слоан, Джозеф Норман Шоу, Мими Джианопулос, Эден Томни, Лэндон Либуарон-Описание: Девушка живёт со своей эксцентричной матерью. У неё не всё ладится, жизнь кажется монотонной и пустой, пока она не находит лошадь, сбежавшую из загона. Хотя девушка и возвращает лошадь её владельцу, но пытается помочь реализовать скрытый потенциал этой лошади. Она уговаривает владельца, чтобы тот разрешил ей тренировать лошадь к соревнованиям...-Релиз:
-Качество видео: BDRemux 1080i
Формат видео: MKV
Видео: 1920x1080 at 25.000 fps, MPEG-2, ~21000 kbps avg
Аудио 1: Russian: 48 kHz, AC3, 2/0 (L,R) ch, ~192.00 kbps avg |Многоголосый закадровый|
Аудио 2: Russian: 48 kHz, AC3, 2/0 (L,R) ch, ~192.00 kbps avg |Двухголосый закадровый|
Аудио 3: English: DTS-HD MA / 5.1 / 48 kHz / 1501 kbps / 16-bit (DTS Core: 5.1 / 48 kHz / 768 kbps / 16-bit)-Скачать сэмпл-Цитата:
Цитата:

  • Сохранены оригинальные чаптеры как на Blu-ray.

MediaInfo

Код:
Формат                                   : Matroska
Версия формата                           : Version 2
Размер файла                             : 14,3 Гбайт
Продолжительность                        : 1 ч. 29 м.
Общий поток                              : 22,9 Мбит/сек
Дата кодирования                         : UTC 2016-10-17 12:09:17
Программа кодирования                    : mkvmerge v4.2.0 ('No Talking') сборка от Jul 28 2010 18:38:23
Библиотека кодирования                   : libebml v1.0.0 + libmatroska v1.0.0
Видео
Идентификатор                            : 1
Формат                                   : MPEG Video
Версия формата                           : Version 2
Профиль формата                          : Main@High
Параметр BVOP формата                    : Да
Параметр матрицы формата                 : По умолчанию
Параметр GOP формата                     : M=3, N=15
Структура изображения                    : Frame
Идентификатор кодека                     : V_MPEG2
Идентификатор кодека/Информация          : MPEG 1 or 2 Video
Продолжительность                        : 1 ч. 29 м.
Максимальный битрейт                     : 21,0 Мбит/сек
Ширина                                   : 1920 пикселей
Высота                                   : 1080 пикселей
Соотношение сторон                       : 16:9
Режим частоты кадров                     : Постоянный
Частота кадров                           : 25,000 кадров/сек
Цветовое пространство                    : YUV
Субдискретизация насыщенности            : 4:2:0
Битовая глубина                          : 8 бит
Тип развёртки                            : Чересстрочная
Порядок развёртки                        : Нижнее поле первое
Метод сжатия                             : С потерями
Временной код первого кадра              : 00:00:00:00
Оригинал временного кода                 : Group of pictures header
GOP, открыто/закрыто                     : Закрыто
Язык                                     : English
Default                                  : Да
Forced                                   : Нет
Аудио #1
Идентификатор                            : 2
Формат                                   : AC-3
Формат/Информация                        : Audio Coding 3
Расширение режима                        : CM (complete main)
Параметр Endianness формата              : Big
Идентификатор кодека                     : A_AC3
Продолжительность                        : 1 ч. 29 м.
Вид битрейта                             : Постоянный
Битрейт                                  : 192 Кбит/сек
Каналы                                   : 2 канала
Расположение каналов                     : Front: L R
Частота                                  : 48,0 КГц
Частота кадров                           : 31,250 кадров/сек (1536 spf)
Метод сжатия                             : С потерями
Размер потока                            : 123 Мбайт (1%)
Заголовок                                : Многоголосый закадровый
Язык                                     : Russian
Default                                  : Да
Forced                                   : Нет
Аудио #2
Идентификатор                            : 3
Формат                                   : AC-3
Формат/Информация                        : Audio Coding 3
Расширение режима                        : CM (complete main)
Параметр Endianness формата              : Big
Идентификатор кодека                     : A_AC3
Продолжительность                        : 1 ч. 29 м.
Вид битрейта                             : Постоянный
Битрейт                                  : 192 Кбит/сек
Каналы                                   : 2 канала
Расположение каналов                     : Front: L R
Частота                                  : 48,0 КГц
Частота кадров                           : 31,250 кадров/сек (1536 spf)
Метод сжатия                             : С потерями
Размер потока                            : 123 Мбайт (1%)
Заголовок                                : Двухголосый закадровый
Язык                                     : Russian
Default                                  : Нет
Forced                                   : Нет
Аудио #3
Идентификатор                            : 4
Формат                                   : DTS
Формат/Информация                        : Digital Theater Systems
Профиль формата                          : MA / Core
Режим                                    : 16
Параметр Endianness формата              : Big
Идентификатор кодека                     : A_DTS
Продолжительность                        : 1 ч. 29 м.
Вид битрейта                             : Переменный / Постоянный
Битрейт                                  : Неизвестно / 768 Кбит/сек
Каналы                                   : 6 каналов
Расположение каналов                     : Front: L C R, Side: L R, LFE
Частота                                  : 48,0 КГц
Частота кадров                           : 93,750 кадра/сек (512 spf)
Битовая глубина                          : 16 бит
Метод сжатия                             : Без потерь / Lossy
Язык                                     : English
Default                                  : Нет
Forced                                   : Нет
Текст
Идентификатор                            : 5
Формат                                   : UTF-8
Идентификатор кодека                     : S_TEXT/UTF8
Идентификатор кодека/Информация          : UTF-8 Plain Text
Язык                                     : English
Default                                  : Нет
Forced                                   : Нет
Меню
00:00:00.000                             : en:
00:02:57.000                             : en:
00:11:16.200                             : en:
00:15:29.200                             : en:
00:20:46.000                             : en:
00:27:17.199                             : en:
00:35:59.440                             : en:
00:44:45.000                             : en:
00:56:48.400                             : en:
01:06:29.198                             : en:
01:16:14.000                             : en:
01:26:08.079                             : en:

Скриншоты


_________________
Показать сообщения:    

Текущее время: Сегодня 15:34

Часовой пояс: GMT



Вы не можете начинать темы
Вы не можете отвечать на сообщения
Вы не можете редактировать свои сообщения
Вы не можете удалять свои сообщения
Вы не можете голосовать в опросах
Вы не можете прикреплять файлы к сообщениям
Вы не можете скачивать файлы