Важное объявление!
У Нас Все раздачи мультитрекерные, при нуле пиров в релизах, можете смело вставать на закачку!
 
Автор Сообщение

HUNTER

Стаж:
4 года 6 месяцев
Сообщений:
60994

Репутация: 101

[+] [-]
Вне форума [Профиль] [ЛС]

Побег в никуда / Ride in the Whirlwind
Страна: США
Жанр: вестерн
Год выпуска: 1966
Продолжительность: 01:22:21
Перевод: Профессиональный (многоголосый закадровый) DVD Магия
Cубтитры: английские
Оригинальная аудиодорожка: английский-Режиссер: Монте Хеллман / Monte Hellman
В ролях: Кэмерон Митчелл, Джек Николсон, Милли Перкинс, Брэндон Кэрролл, Кэтрин Скуайр, Джордж Митчелл, Руперт Кросс, Гарри Дин Стэнтон, Джон Хэкетт, Чарльз Истмэн, Гари Кент, Том Файлер, Джеймс Кемпбелл
Описание: Трое ковбоев, Верн, Уэс и Отис остановились на ночной отдых в уединённом укрытии скрывающейся от закона банды Блинда Дика. Утром они оказались окружёнными бдительными линчевателями и поскольку их приняли за бандитов, то вынуждены спасаться бегством...
IMDb || КиноПоиск-Тип релиза: BDRemux 1080p
Контейнер: MKV
Видео: MPEG-4 AVC Video, 1920x1080 at 23.976 fps, 23000 kbps
Аудио#1: Russian: 48 kHz, AC3, 2.0 ch, 192 kbps
Аудио#2: English: 48 kHz, LPCM, 1.0 ch, 1152 kbps
Аудио#3: English: 48 kHz, AC3, 1.0 ch, 192 kbps |Commentary by Hellman, film historians Krohn and Lucas
Формат субтитров: softsub (SRT)
Сэмпл

MediaInfo

General
Unique ID : 233161572537339091962344965809286286034 (0xAF694912CAFF5863A7D0E1B46DD20AD2)
Complete name : I:\Побег в никуда\Ride.in.the.Whirlwind.1966.Criterion.BDRemux. rutracker.mkv
Format : Matroska
Format version : Version 2
File size : 14.1 GiB
Duration : 1h 22mn
Overall bit rate mode : Variable
Overall bit rate : 24.5 Mbps
Movie name : Release for RuTracker
Writing application : mkvmerge v5.0.1 ('Es ist Sommer') built on Nov 6 2011 16:23:40
Writing library : libebml v1.2.2 + libmatroska v1.3.0
Video
ID : 1
Format : AVC
Format/Info : Advanced Video Codec
Format profile : High@L4.1
Format settings, CABAC : Yes
Format settings, ReFrames : 4 frames
Codec ID : V_MPEG4/ISO/AVC
Duration : 1h 22mn
Bit rate mode : Variable
Maximum bit rate : 37.0 Mbps
Width : 1 920 pixels
Height : 1 080 pixels
Display aspect ratio : 16:9
Frame rate mode : Constant
Frame rate : 23.976 fps
Color space : YUV
Chroma subsampling : 4:2:0
Bit depth : 8 bits
Scan type : Progressive
Title : Ride.in.the.Whirlwind.1966.Criterion.BDRemux. rutracker
Language : English
Default : Yes
Forced : No
Audio #1
ID : 2
Format : AC-3
Format/Info : Audio Coding 3
Mode extension : CM (complete main)
Format settings, Endianness : Big
Codec ID : A_AC3
Duration : 1h 22mn
Bit rate mode : Constant
Bit rate : 192 Kbps
Channel(s) : 2 channels
Channel positions : Front: L R
Sampling rate : 48.0 KHz
Bit depth : 16 bits
Compression mode : Lossy
Stream size : 113 MiB (1%)
Title : DVD Магия
Language : Russian
Default : Yes
Forced : No
Audio #2
ID : 3
Format : PCM
Codec ID : A_PCM/INT/LIT
Duration : 1h 22mn
Bit rate mode : Constant
Sampling rate : 48.0 KHz
Bit depth : 24 bits
Language : English
Default : No
Forced : No
Audio #3
ID : 4
Format : AC-3
Format/Info : Audio Coding 3
Mode extension : CM (complete main)
Format settings, Endianness : Big
Codec ID : A_AC3
Duration : 1h 22mn
Bit rate mode : Constant
Bit rate : 192 Kbps
Channel(s) : 1 channel
Channel positions : Front: C
Sampling rate : 48.0 KHz
Bit depth : 16 bits
Compression mode : Lossy
Stream size : 113 MiB (1%)
Title : commentary
Language : English
Default : No
Forced : No
Text
ID : 5
Format : UTF-8
Codec ID : S_TEXT/UTF8
Codec ID/Info : UTF-8 Plain Text
Language : English
Default : No
Forced : No
Menu
00:00:00.000 : :1.Holdup
00:06:55.289 : :2.The hideout
00:16:24.817 : :3."Fell on his knife"
00:23:23.985 : :4.Surrounded
00:31:57.498 : :5.Smoked out
00:41:33.532 : :6.Citizens' Vigilance Committee
00:52:25.725 : :7.Refuge
01:01:03.284 : :8.Horse thieves
01:10:45.908 : :9.Escape

_________________
Показать сообщения:    

Текущее время: Сегодня 17:51

Часовой пояс: GMT



Вы не можете начинать темы
Вы не можете отвечать на сообщения
Вы не можете редактировать свои сообщения
Вы не можете удалять свои сообщения
Вы не можете голосовать в опросах
Вы не можете прикреплять файлы к сообщениям
Вы не можете скачивать файлы
Наши партнеры: интернет магазин Ивановского трикотажа textilla.ru