Важное объявление!
У Нас Все раздачи мультитрекерные, при нуле пиров в релизах, можете смело вставать на закачку!
 
Автор Сообщение

HUNTER

Стаж:
4 года 8 месяцев
Сообщений:
61985

Репутация: 101

[+] [-]
Вне форума [Профиль] [ЛС]

Пляж Бикини / Bikini Beach-
Страна: США
Студия: American International Pictures (AIP)
Жанр: мюзикл, мелодрама, комедия
Год выпуска: 1964
Продолжительность: 01:35:27-Перевод: Профессиональный (двухголосый закадровый) НТВ+ /Ольга Голованова, Даниил Эльдаров/
Cубтитры: нет
Оригинальная аудиодорожка: английский-Режиссер: Уильям Эшер / William Asher
В ролях: Фрэнки Авалон, Аннетт Фаничелло, Марта Хайер, Дон Риклз, Харви Лембек, Джон Эшли, Джоди МакКри, Кэнди Джонсон, Даниэль Обри, Мередит МакРэй...- | Релиз: -Описание: Шумная компания молодых людей, которая любит громкую музыку, задорные танцы и конечно-же сёрфинг, устраивается на прекрасном пляже, даже не подозревая, что побеспокоила стариков и старушек, живущих в местном пансионате. Кому-то это начинает очень не нравиться...-Семпл: http://sendfile.su/1136204-Тип релиза: HDTV 1080i
Контейнер: TS
Видео: 1920x1080i (16:9), 25.000 fps, AVC, ~7084 Kbps, 0.137 bits/pixel
Аудио 1: Русский, 48.0 KHz, MPEG-1 Audio layer 2, 2 ch, 192 kbps
Аудио 2: English, 48.0 KHz, MPEG-1 Audio layer 2, 2 ch, 192 kbps

MediaInfo

GeneralID : 1 (0x1)Complete name : Bikini Beach 1964 MGMHD 1080i.rus.eng.tsFormat : MPEG-TSFile size : 5.24 GiBDuration : 1h 35mnOverall bit rate mode : VariableOverall bit rate : 7 860 KbpsMaximum Overall bit rate : 35.5 Mbps
VideoID : 4113 (0x1011)Menu ID : 1 (0x1)Format : AVCFormat/Info : Advanced Video CodecFormat profile : Main@L4Format settings, CABAC : YesFormat settings, ReFrames : 4 framesCodec ID : 27Duration : 1h 35mnBit rate : 7 084 KbpsWidth : 1 920 pixelsHeight : 1 080 pixelsDisplay aspect ratio : 16:9Frame rate : 25.000 fpsStandard : ComponentColor space : YUVChroma subsampling : 4:2:0Bit depth : 8 bitsScan type : InterlacedScan order : Top Field FirstBits/(Pixel*Frame) : 0.137Stream size : 4.72 GiB (90%)Color range : LimitedColor primaries : BT.709Transfer characteristics : BT.709Matrix coefficients : BT.709
Audio #1ID : 4352 (0x1100)Menu ID : 1 (0x1)Format : MPEG AudioFormat version : Version 1Format profile : Layer 2Codec ID : 4Duration : 1h 35mnBit rate mode : ConstantBit rate : 192 KbpsChannel(s) : 2 channelsSampling rate : 48.0 KHzCompression mode : LossyStream size : 131 MiB (2%)Language : Russian
Audio #2ID : 4353 (0x1101)Menu ID : 1 (0x1)Format : MPEG AudioFormat version : Version 1Format profile : Layer 2Codec ID : 4Duration : 1h 35mnBit rate mode : ConstantBit rate : 192 KbpsChannel(s) : 2 channelsSampling rate : 48.0 KHzCompression mode : LossyStream size : 131 MiB (2%)Language : English

Скриншоты


_________________
Показать сообщения:    

Текущее время: Сегодня 22:09

Часовой пояс: GMT



Вы не можете начинать темы
Вы не можете отвечать на сообщения
Вы не можете редактировать свои сообщения
Вы не можете удалять свои сообщения
Вы не можете голосовать в опросах
Вы не можете прикреплять файлы к сообщениям
Вы не можете скачивать файлы
Наши партнеры: интернет магазин Ивановского трикотажа textilla.ru