Важное объявление!
У Нас Все раздачи мультитрекерные, при нуле пиров в релизах, можете смело вставать на закачку!
 
Автор Сообщение

димитри37

Стаж:
4 года 2 месяца
Сообщений:
1236

Репутация: 127

[+] [-]
Вне форума [Профиль] [ЛС]

Плохой хороший человек
Жанр: драма
Год выпуска: 1973
Продолжительность: 01:34:18-Режиссёр: Иосиф Хейфиц-В ролях:
Олег Даль - Лаевский
Владимир Высоцкий - фон Корен
Людмила Максакова - Надежда Фёдоровна
Анатолий Папанов - доктор Самойленко
Георгий Корольчук - дьякон Победов
Анатолий Азо - Кирилин
Ашот Меликджанян - Ачмианов
Любовь Малиновская - Марья Константиновна
Юрий Медведев - Шешковский
Анхель Гутьерес - Ачмианов-старший
Игорь Ефимов - Бойко
Описание:
По повести А. П. Чехова «Дуэль». Мучимый никчемностью и скукой жизни, чиновник Лаевский жаждет любой ценой разорвать порочный круг своего существования. Его нравственный антипод, натуралист Фон Корен, уверен, что люди, подобные Лаевскому, достойны уничтожения. Но вопреки желаниям и воле героев провидение по-своему распоряжается их судьбами…- -Качество видео: DVDRip-AVC
Формат видео: MKV
Видео: x264 (High@L4.1); Анаморф 716@1018x436; Display aspect ratio: 2.33:1, 25.000 fps, 1759 Kbps
Аудио: Оригинал AC-3; 16 bit 48 Khz; 6ch 448 Kbps; CBR

MediaInfo

General
Unique ID : 254794951228441046941236147689727246521 (0xBFAFB8FDF2F0AD2C9690FEAF9D0CC0B9)
Complete name : Плохой хороший человек.1973.mkv
Format : Matroska
Format version : Version 2
File size : 1.46 GiB
Duration : 1h 34mn
Overall bit rate : 2 209 Kbps
Movie name : «Плохой хороший человек»
Encoded date : UTC 2013-03-03 15:13:06
Writing application : mkvmerge v5.8.0 ('No Sleep / Pillow') built on Sep 2 2012 15:37:04
Writing library : libebml v1.2.3 + libmatroska v1.3.0
Comment : DVDRip-AVC
Original date released : March 3rd 2013
Encoded by : imgeorgest®
Video
ID : 1
Format : AVC
Format/Info : Advanced Video Codec
Format profile : High@L4.1
Format settings, CABAC : Yes
Format settings, ReFrames : 16 frames
Codec ID : V_MPEG4/ISO/AVC
Duration : 1h 34mn
Bit rate : 1 759 Kbps
Width : 716 pixels
Height : 436 pixels
Display aspect ratio : 2.35:1
Original display aspect ratio : 2.35:1
Frame rate : 25.000 fps
Color space : YUV
Chroma subsampling : 4:2:0
Bit depth : 8 bits
Scan type : Progressive
Bits/(Pixel*Frame) : 0.225
Stream size : 1.13 GiB (78%)
Title : Плохой хороший человек.1973
Writing library : x264 core 125 r2200 999b753
Encoding settings : cabac=1 / ref=16 / deblock=1:-1:-1 / analyse=0x3:0x133 / me=umh / subme=11 / psy=1 / psy_rd=1.00:0.10 / mixed_ref=1 / me_range=48 / chroma_me=1 / trellis=2 / 8x8dct=1 / cqm=0 / deadzone=21,11 / fast_pskip=0 / chroma_qp_offset=-3 / threads=12 / lookahead_threads=2 / sliced_threads=0 / nr=0 / decimate=0 / interlaced=0 / bluray_compat=0 / constrained_intra=0 / bframes=9 / b_pyramid=2 / b_adapt=2 / b_bias=0 / direct=3 / weightb=1 / open_gop=0 / weightp=2 / keyint=250 / keyint_min=25 / scenecut=40 / intra_refresh=0 / rc_lookahead=60 / rc=2pass / mbtree=1 / bitrate=1759 / ratetol=1.0 / qcomp=0.60 / qpmin=0 / qpmax=69 / qpstep=4 / cplxblur=20.0 / qblur=0.5 / vbv_maxrate=50000 / vbv_bufsize=62500 / nal_hrd=none / ip_ratio=1.40 / aq=1:1.00
Language : Russian
Default : Yes
Forced : No
Color primaries : BT.470-6 System B, BT.470-6 System G, BT.601-6 625, BT.1358 625, BT.1700 625 PAL, BT.1700 625 SECAM
Transfer characteristics : BT.470-6 System B, BT.470-6 System G
Matrix coefficients : BT.470-6 System B, BT.470-6 System G, BT.601-6 625, BT.1358 625, BT.1700 625 PAL, BT.1700 625 SECAM, IEC 61966-2-4 601
Audio
ID : 2
Format : AC-3
Format/Info : Audio Coding 3
Mode extension : CM (complete main)
Codec ID : A_AC3
Duration : 1h 34mn
Bit rate mode : Constant
Bit rate : 448 Kbps
Channel(s) : 6 channels
Channel positions : Front: L C R, Side: L R, LFE
Sampling rate : 48.0 KHz
Bit depth : 16 bits
Compression mode : Lossy
Stream size : 302 MiB (20%)
Title : Оригинал AC-3; 16 bit 48 Khz; 6ch 448 Kbps; CBR
Language : Russian
Default : Yes
Forced : No

x264 log

...last pass...
x264.exe: --pass 2 --bitrate 1759 --preset medium --ref 16 --deblock -1:-1 --merange 48 --bframes 9 --direct auto --b-adapt 2 --trellis 2 --no-fast-pskip --no-dct-decimate --psy-rd 1.00:0.10 --vbv-maxrate 50000 --vbv-bufsize 62500 --partitions all --subme 11 --me umh --slow-firstpass --rc-lookahead 60 --colorprim bt470bg --transfer bt470bg --colormatrix bt470bg --sar 64:45 --stats "K:\Плохой хороший человек.1973.log" --output "K:\Плохой хороший человек.1973.mkv" "L:\Temp\1205.avs"
avs [info]: 716x436p 64:45 @ 25/1 fps (cfr)
x264 [info]: using SAR=64/45
x264 [info]: using cpu capabilities: MMX2 SSE2Fast SSSE3 FastShuffle SSE4.2
x264 [info]: profile High, level 4.1
x264 [info]: frame I:785 Avg QP:16.84 size: 46603
x264 [info]: frame P:28123 Avg QP:18.21 size: 21773
x264 [info]: frame B:112553 Avg QP:22.29 size: 5291
x264 [info]: consecutive B-frames: 0.9% 0.9% 2.8% 24.1% 18.1% 42.9% 7.4% 2.2% 0.5% 0.2%
x264 [info]: mb I I16..4: 4.5% 78.4% 17.1%
x264 [info]: mb P I16..4: 0.6% 11.8% 1.9% P16..4: 31.6% 36.3% 11.6% 4.1% 0.4% skip: 1.7%
x264 [info]: mb B I16..4: 0.1% 1.6% 0.2% B16..8: 33.9% 16.5% 2.3% direct: 9.0% skip:36.5% L0:38.7% L1:41.4% BI:19.9%
x264 [info]: 8x8 transform intra:83.4% inter:61.9%
x264 [info]: direct mvs spatial:99.8% temporal:0.2%
x264 [info]: coded y,uvDC,uvAC intra: 91.2% 70.5% 36.5% inter: 33.0% 21.0% 6.2%
x264 [info]: i16 v,h,dc,p: 50% 18% 8% 24%
x264 [info]: i8 v,h,dc,ddl,ddr,vr,hd,vl,hu: 13% 10% 8% 8% 12% 12% 12% 11% 14%
x264 [info]: i4 v,h,dc,ddl,ddr,vr,hd,vl,hu: 38% 11% 6% 5% 8% 9% 8% 7% 8%
x264 [info]: i8c dc,h,v,p: 29% 32% 24% 15%
x264 [info]: Weighted P-Frames: Y:37.1% UV:11.6%
x264 [info]: ref P L0: 35.3% 12.2% 15.5% 8.1% 6.2% 5.0% 4.2% 2.6% 2.2% 1.9% 1.6% 1.4% 1.2% 1.0% 0.9% 0.5%
x264 [info]: ref B L0: 79.3% 10.2% 3.4% 1.7% 1.3% 1.0% 0.8% 0.5% 0.4% 0.3% 0.3% 0.2% 0.2% 0.1% 0.1%
x264 [info]: ref B L1: 95.8% 4.2%
x264 [info]: kb/s:1759.48
x264 [total]: encoded 141461 frames, 14.36 fps, 1759.48 kb/s

Скриншоты

Исходник

Показать сообщения:    

Текущее время: Сегодня 12:12

Часовой пояс: GMT



Вы не можете начинать темы
Вы не можете отвечать на сообщения
Вы не можете редактировать свои сообщения
Вы не можете удалять свои сообщения
Вы не можете голосовать в опросах
Вы не можете прикреплять файлы к сообщениям
Вы не можете скачивать файлы