Важное объявление!
У Нас Все раздачи мультитрекерные, при нуле пиров в релизах, можете смело вставать на закачку!
 
Автор Сообщение

HUNTER

Стаж:
4 года 8 месяцев
Сообщений:
62102

Репутация: 101

[+] [-]
Вне форума [Профиль] [ЛС]

Плохой день в Блэк Роке / Bad Day at Black Rock
-Страна: США
Студия: Universal International Pictures
Жанр: драма
Год выпуска: 1955
Продолжительность: 01:21:30-Перевод: Одноголосый закадровый
Cубтитры: английские
Оригинальная аудиодорожка: английский-Режиссер: Джон Стерджес / John Sturges-В ролях: Спенсер Трэйси, Роберт Райан, Энн Фрэнсис, Дин Джэггер, Уолтер Бреннан, Джон Эриксон, Ли Марвин, Эрнест Боргнайн, Расселл Коллинз, Уолтер Сэнди-Описание: Джон Макриди приезжает в маленький городок Блэк-Рок, чтобы отдать награду человека, погибшего в бою, его отцу. Однако здесь с самого начала он сталкивается с неприязненым отношением к себе. Его не хотят селить в гостиницу, отказывают дать машину напрокат… Вскоре он понимает, что жители городка скрывают какую-то неприятную тайну…-Доп. информация: аудио дорожки взята http://rutracker.org/forum/viewtopic.php?t=4123420-Сэмпл: Скачать-Тип релиза: HDTVRip 720p
Контейнер: MKV
Видео: 1280x496 (2.581); 4566 Kbps; 29.970 fps; 0.277 bpp
Аудио 1: Russian; AC3; 48.0 KHz; 2ch; 192 Kbps
Аудио 2: English; AC3; 48.0 KHz; 6ch; 384 Kbps

MediaInfo

Format : Matroska
Format version : Version 2
File size : 3.33 GiB
Duration : 1h 21mn
Overall bit rate : 5 844 Kbps
Encoded date : UTC 2013-05-13 06:59:38
Writing application : mkvmerge v5.0.1 ('Es ist Sommer') built on Oct 9 2011 11:55:43
Writing library : libebml v1.2.2 + libmatroska v1.3.0
Video
ID : 1
Format : AVC
Format/Info : Advanced Video Codec
Format profile : High@L4.1
Format settings, CABAC : Yes
Format settings, ReFrames : 9 frames
Codec ID : V_MPEG4/ISO/AVC
Duration : 1h 21mn
Bit rate : 5 266 Kbps
Width : 1 280 pixels
Height : 496 pixels
Display aspect ratio : 2.581
Frame rate mode : Constant
Frame rate : 29.970 fps
Color space : YUV
Chroma subsampling : 4:2:0
Bit depth : 8 bits
Scan type : Progressive
Bits/(Pixel*Frame) : 0.277
Stream size : 2.93 GiB (88%)
Writing library : x264 core 129 r2245 bc13772
Encoding settings : cabac=1 / ref=9 / deblock=1:-1:-1 / analyse=0x3:0x133 / me=umh / subme=9 / psy=1 / psy_rd=1.00:0.00 / mixed_ref=1 / me_range=32 / chroma_me=1 / trellis=2 / 8x8dct=1 / cqm=0 / deadzone=21,11 / fast_pskip=0 / chroma_qp_offset=-2 / threads=6 / lookahead_threads=1 / sliced_threads=0 / nr=0 / decimate=1 / interlaced=0 / bluray_compat=0 / constrained_intra=0 / bframes=8 / b_pyramid=2 / b_adapt=2 / b_bias=0 / direct=3 / weightb=0 / open_gop=0 / weightp=2 / keyint=300 / keyint_min=29 / scenecut=40 / intra_refresh=0 / rc_lookahead=60 / rc=2pass / mbtree=1 / bitrate=5266 / ratetol=1.0 / qcomp=0.70 / qpmin=0 / qpmax=69 / qpstep=4 / cplxblur=20.0 / qblur=0.5 / ip_ratio=1.40 / aq=1:1.00
Language : English
Default : Yes
Forced : No
Audio #1
ID : 2
Format : AC-3
Format/Info : Audio Coding 3
Mode extension : CM (complete main)
Format settings, Endianness : Big
Codec ID : A_AC3
Duration : 1h 21mn
Bit rate mode : Constant
Bit rate : 192 Kbps
Channel(s) : 2 channels
Channel positions : Front: L R
Sampling rate : 48.0 KHz
Bit depth : 16 bits
Compression mode : Lossy
Stream size : 112 MiB (3%)
Title : MVO
Language : Russian
Default : Yes
Forced : No
Audio #2
ID : 3
Format : AC-3
Format/Info : Audio Coding 3
Mode extension : CM (complete main)
Format settings, Endianness : Big
Codec ID : A_AC3
Duration : 1h 21mn
Bit rate mode : Constant
Bit rate : 384 Kbps
Channel(s) : 6 channels
Channel positions : Front: L C R, Side: L R, LFE
Sampling rate : 48.0 KHz
Bit depth : 16 bits
Compression mode : Lossy
Stream size : 224 MiB (7%)
Language : English
Default : No
Forced : No
Text
ID : 4
Format : UTF-8
Codec ID : S_TEXT/UTF8
Codec ID/Info : UTF-8 Plain Text
Language : English
Default : No
Forced : No

Скриншоты


_________________
Показать сообщения:    

Текущее время: Сегодня 22:20

Часовой пояс: GMT



Вы не можете начинать темы
Вы не можете отвечать на сообщения
Вы не можете редактировать свои сообщения
Вы не можете удалять свои сообщения
Вы не можете голосовать в опросах
Вы не можете прикреплять файлы к сообщениям
Вы не можете скачивать файлы
Наши партнеры: интернет магазин Ивановского трикотажа textilla.ru