Ивановский Торрент трекер
Яндекс.Погода
 

[Цитировать]
HUNTER

Плащ и кинжал / Cloak and Dagger- Год выпуска: 1946
Страна: США
Жанр: мелодрама, приключения, военный
Продолжительность: 01:46:54
Перевод: Профессиональный (многоголосый закадровый) Светла
Перевод 2: Авторский (одноголосый закадровый) Сергей Кузнецов
Оригинальная аудиодорожка: Английская
Cубтитры: Английские-Режиссер: Фриц Ланг / Fritz Lang
В ролях: Гэри Купер, Лилли Пальмер, Роберт Алда, Владимир Соколов, Дж. Эдвард Бромберг, Марджори Хошелл, Людвиг Штёссель, Хелен Тимиг, Дэн Сеймур, Марк Лоуренс.-Описание:
К концу Второй мировой войны секретная служба союзников получает сообщение о том, что немцы исследуют ядерную энергию, чтобы построить атомную бомбу. Управление Стратегических Служб — «ОСС», американская организация, занимавшаяся промышленным шпионажем и похищением интеллектуальной собственности у нацистов, - обращается к ученому-атомщику Алве Джасперу (Купер). Его задание - добыть немецкие научные разработки в области создания ядерной бомбы.
Опасные приключения Джаспера начинаются в Швейцарии, а продолжатся в Италии, куда он должен отправиться после того, как женщина-физик, с которой он должен был встретиться, убита немецкими агентами...-За Кузнецова спасибо SeRG59, за "Светлу" – palmeiras.
| IMDb | Сэмпл-Качество: BDRip 720p (CRiSC)
Контейнер: MKV
Видео: x264, 982x720 (1.37:1), 23.976 fps, 11000 kbps
Аудио 1: Русский AC3 2.0, 48 kHz, 192 kbps — Светла
Аудио 2: Русский AC3 2.0, 48 kHz, 192 kbps — Кузнецов
Аудио 3: Английский FLAC 1.0, 48 kHz, 248 kbps

Скриншоты

Source - CRiSC



MI

nfo
RELEASE.iNFO:
RELEASE.NAME....: Cloak.and.Dagger.1946.720p.BluRay.FLAC1.0.x264-CRiSC.mkv
IMDb............: http://www.imdb.com/title/tt0038417/
RUNTiME.........: 01:46:54
SiZE............: 8.39 GB
ViDEO.CODEC.....: x264
FRAMERATE.......: 23.976
BiTRATE.........: 11000 kbps
RESOLUTiON......: 982x720
AUDiO...........: English FLAC 1.0 248 kbps
CHAPTERS........: Yes
SUBTiTLES.......: -
ENCODER.........: Kuningas
RELEASE.DATE....: 19.08.2013
SOURCE..........: Cloak and Dagger 1946 1080p Blu-ray AVC DTS-HD MA 1.0
x264.log:
x264 [info]: profile High, level 4.1
x264 [info]: frame I:828 Avg QP:20.52 size: 99006
x264 [info]: frame P:25497 Avg QP:21.30 size: 66666
x264 [info]: frame B:127454 Avg QP:22.06 size: 55210
x264 [info]: consecutive B-frames: 0.8% 1.0% 2.6% 8.9% 10.6% 39.6% 8.9% 3.4% 7.7% 3.1% 4.8% 5.6% 2.2% 0.8%
encoded 153779 frames, 7.01 fps, 10999.27 kb/s
General
Unique ID : 230017639247498540593624790021502374341 (0xAD0BC931D13B2EB7A6B9A785FCFF91C5)
Complete name : Cloak.and.Dagger.1946.720p.BluRay.x264-CRiSC.mkv
Format : Matroska
Format version : Version 2
File size : 8.69 GiB
Duration : 1h 46mn
Overall bit rate mode : Variable
Overall bit rate : 11.6 Mbps
Movie name : Cloak and Dagger / Плащ и кинжал (1946) – RuTracker
Encoded date : UTC 2015-01-28 19:46:54
Writing application : mkvmerge v7.5.0 ('Glass Culture') 64bit built on Jan 4 2015 16:48:44
Writing library : libebml v1.3.1 + libmatroska v1.4.2
Attachements : cover.jpg
Video
ID : 1
Format : AVC
Format/Info : Advanced Video Codec
Format profile : High@L4.1
Format settings, CABAC : Yes
Format settings, ReFrames : 11 frames
Codec ID : V_MPEG4/ISO/AVC
Duration : 1h 46mn
Nominal bit rate : 11.0 Mbps
Width : 982 pixels
Height : 720 pixels
Display aspect ratio : 4:3
Frame rate mode : Constant
Frame rate : 23.976 fps
Color space : YUV
Chroma subsampling : 4:2:0
Bit depth : 8 bits
Scan type : Progressive
Bits/(Pixel*Frame) : 0.649
Title : Cloak.and.Dagger.1946.720p.BluRay.FLAC1.0.x264-CRiSC
Writing library : x264 core 135 r2345kMod f0c1c53
Encoding settings : cabac=1 / ref=11 / deblock=1:-1:-1 / analyse=0x3:0x133 / me=umh / subme=11 / psy=1 / fade_compensate=0.00 / psy_rd=0.85:0.10 / mixed_ref=1 / me_range=64 / chroma_me=1 / trellis=2 / 8x8dct=1 / cqm=0 / deadzone=21,11 / fast_pskip=0 / chroma_qp_offset=-3 / threads=12 / lookahead_threads=3 / sliced_threads=0 / nr=0 / decimate=0 / interlaced=0 / bluray_compat=0 / constrained_intra=0 / bframes=13 / b_pyramid=2 / b_adapt=2 / b_bias=0 / direct=3 / weightb=1 / open_gop=0 / weightp=2 / keyint=250 / keyint_min=23 / scenecut=40 / intra_refresh=0 / rc_lookahead=40 / rc=2pass / mbtree=0 / bitrate=11000 / ratetol=1.0 / qcomp=0.70 / qpmin=0 / qpmax=69 / qpstep=4 / cplxblur=20.0 / qblur=0.5 / vbv_maxrate=50000 / vbv_bufsize=62500 / nal_hrd=none / ip_ratio=1.10 / pb_ratio=1.10 / aq=2:0.50
Language : English
Default : Yes
Forced : No
Color primaries : BT.709
Transfer characteristics : BT.709
Matrix coefficients : BT.709
Color range : Limited
Audio #1
ID : 2
Format : AC-3
Format/Info : Audio Coding 3
Mode extension : CM (complete main)
Format settings, Endianness : Big
Codec ID : A_AC3
Duration : 1h 46mn
Bit rate mode : Constant
Bit rate : 192 Kbps
Channel(s) : 2 channels
Channel positions : Front: L R
Sampling rate : 48.0 KHz
Bit depth : 16 bits
Compression mode : Lossy
Stream size : 147 MiB (2%)
Title : MVO – Светла
Language : Russian
Default : Yes
Forced : No
Audio #2
ID : 3
Format : AC-3
Format/Info : Audio Coding 3
Mode extension : CM (complete main)
Format settings, Endianness : Big
Codec ID : A_AC3
Duration : 1h 46mn
Bit rate mode : Constant
Bit rate : 192 Kbps
Channel(s) : 2 channels
Channel positions : Front: L R
Sampling rate : 48.0 KHz
Bit depth : 16 bits
Compression mode : Lossy
Stream size : 147 MiB (2%)
Title : AVO – С.Кузнецов
Language : Russian
Default : No
Forced : No
Audio #3
ID : 4
Format : FLAC
Format/Info : Free Lossless Audio Codec
Codec ID : A_FLAC
Duration : 1h 46mn
Bit rate mode : Variable
Channel(s) : 1 channel
Sampling rate : 48.0 KHz
Bit depth : 16 bits
Title : Original
Writing library : libFLAC 1.3.0 (UTC 2013-05-26)
Language : English
Default : No
Forced : No
Text
ID : 5
Format : UTF-8
Codec ID : S_TEXT/UTF8
Codec ID/Info : UTF-8 Plain Text
Language : English
Default : No
Forced : No
Menu
00:00:00.000 : en:Chapter 1
00:12:46.891 : en:Chapter 2
00:36:13.671 : en:Chapter 3
00:46:44.802 : en:Chapter 4
00:56:51.449 : en:Chapter 5
01:07:21.871 : en:Chapter 6
01:21:44.524 : en:Chapter 7
01:30:59.996 : en:Chapter 8
Показать сообщения:    

Текущее время: 24-Окт 04:59

Часовой пояс: UTC - 1


Вы не можете начинать темы
Вы не можете отвечать на сообщения
Вы не можете редактировать свои сообщения
Вы не можете удалять свои сообщения
Вы не можете голосовать в опросах
Вы не можете прикреплять файлы к сообщениям
Вы не можете скачивать файлы

!ВНИМАНИЕ!
Сайт не предоставляет электронные версии произведений, а занимается лишь коллекционированием и каталогизацией ссылок, присылаемых и публикуемых на форуме нашими читателями. Если вы являетесь правообладателем какого-либо представленного материала и не желаете, чтобы ссылка на него находилась в нашем каталоге, свяжитесь с нами, и мы незамедлительно удалим ее. Файлы для обмена на трекере предоставлены пользователями сайта, и администрация не несет ответственности за их содержание. Просьба не заливать файлы, защищенные авторскими правами, а также файлы нелегального содержания!