Важное объявление!
У Нас Все раздачи мультитрекерные, при нуле пиров в релизах, можете смело вставать на закачку!
 
Автор Сообщение

HUNTER

Стаж:
4 года 6 месяцев
Сообщений:
60950

Репутация: 101

[+] [-]
Вне форума [Профиль] [ЛС]

Пластика кошки. Школа стриптиза. LAP DANCE и приватный танец. Часть 3-

Год выпуска: 2008
Страна: Россия
Сайт производителя: отсутствуeт
Тематика: Танцы
Тип материала: Обучающее видео-Продолжительность: 00:54:57
Автор: Михаил Трофимченко
В ролях: Екатерина Жильникова-Язык: Русский
Субтитры: отсутствуют-Описание: 3-й урок - только для отличниц по перевоплощению и владению секретным оружием.
Лэп Дэнс (танец со стулом) и приватный танец от OBSESSION. Особый танец, только для НЕГО. Танец, за который правители всех времен отдавали пол царства, но иногда лишали жизни! Манящий образ, искусно обыгранные предметы и аксессуары одежды. Вы будете великолепны, а мужчина навек завоёван, сражён, опутан сетями...
Осталось только выбрать мужчину, который достоин ВАШЕГО танца
-Качество: DVDRip
Формат: AVI
Видео кодек: DivX
Аудио кодек: MP3
Видео: 720x416 (1.73:1), 25 fps, DivX Codec 5.2.1 build 1338 ~1771 kbps avg, 0.24 bit/pixel
Аудио: 48 kHz, MPEG Layer 3, 2 ch, ~112.98 kbps avg-

MediaInfo

Код: copyText_writeLink('this.parentNode.parentNode.nextSibling.nextSibling'); General
Complete name : E:\Обучение\shkola_streptiza_3\Пластика кошки. Школа стриптиза. LAP DANCE и приватный танец.avi
Format : AVI
Format/Info : Audio Video Interleave
File size : 746 MiB
Duration : 54mn 57s
Overall bit rate mode : Variable
Overall bit rate : 1 898 Kbps
Writing application : VirtualDubMod 1.5.4.1 (build 2178/release)
Writing library : VirtualDub build 31536/release
Video
ID : 0
Format : MPEG-4 Visual
Format settings, BVOP : No
Format settings, QPel : No
Format settings, GMC : No warppoints
Format settings, Matrix : Default (H.263)
Codec ID : DX50
Codec ID/Hint : DivX 5
Duration : 54mn 57s
Bit rate : 1 771 Kbps
Width : 720 pixels
Height : 416 pixels
Display aspect ratio : 1.731
Frame rate : 25.000 fps
Color space : YUV
Chroma subsampling : 4:2:0
Bit depth : 8 bits
Scan type : Progressive
Compression mode : Lossy
Bits/(Pixel*Frame) : 0.237
Stream size : 696 MiB (93%)
Writing library : DivX 5.2.1 (DrDivX 106) (UTC 2004-09-08)
Audio
ID : 1
Format : MPEG Audio
Format version : Version 1
Format profile : Layer 3
Mode : Joint stereo
Mode extension : MS Stereo
Codec ID : 55
Codec ID/Hint : MP3
Duration : 54mn 57s
Bit rate mode : Variable
Bit rate : 113 Kbps
Nominal bit rate : 128 Kbps
Channel(s) : 2 channels
Sampling rate : 48.0 KHz
Compression mode : Lossy
Delay relative to video : 7s 8ms
Stream size : 44.6 MiB (6%)
Alignment : Split accross interleaves
Interleave, duration : 24 ms (0.60 video frame)
Interleave, preload duration : 1712 ms
Writing library : LAME3.97
Encoding settings : -m j -V 4 -q 2 -lowpass 17 --abr 128
- -

_________________
Показать сообщения:    

Текущее время: Сегодня 06:59

Часовой пояс: GMT



Вы не можете начинать темы
Вы не можете отвечать на сообщения
Вы не можете редактировать свои сообщения
Вы не можете удалять свои сообщения
Вы не можете голосовать в опросах
Вы не можете прикреплять файлы к сообщениям
Вы не можете скачивать файлы
Наши партнеры: интернет магазин Ивановского трикотажа textilla.ru