Пластика кошки. Школа стриптиза. В поисках образа. Часть 2 (Михаил Трофимченко)[2008, Танцы, DVDRip] :: Ивановский Торрент трекер
Важное объявление!
У Нас Все раздачи мультитрекерные, при нуле пиров в релизах, можете смело вставать на закачку!
Статистика раздачи
Размер:     |    Зарегистрирован:     |    Скачан:     |   
Нет
 
     
 
 
Автор Сообщение

HUNTER

Стаж:
4 года 11 месяцев
Сообщений:
66052

Репутация: 101

[+] [-]
Вне форума [Профиль] [ЛС]

Пластика кошки. Школа стриптиза. В поисках образа. Часть 2-

Год выпуска: 2008
Страна: Россия
Сайт производителя: отсутствуeт
Тематика: Танцы
Тип материала: Обучающее видео-Продолжительность: 00:57:51
Автор: Михаил Трофимченко
В ролях: Екатерина Жильникова-Язык: Русский
Субтитры: отсутствуют-Описание: Уроки первого фильма научили Вас особым секретным приёмам. Пора выходить в Свет! Но сначала… проведите небольшой опрос, что думают о Вас окружающие мужчины? Мышка? Воробушек? Куколка? А какой себя видите Вы? Наш второй урок поможет Вам увидеть свои «скрытые» образы. OBSESSION предлагает примерить облик «Пантеры», «Ковбоя», «Леди с плетью» или нечто такое… такое… И, конечно, новые упражнения для коррекции фигуры. Второй урок "В поисках образа" даст возможность понять и раскрыть секретные возможности, заложенные в каждой женщине.-Качество: DVDRip
Формат: AVI
Видео кодек: XviD
Аудио кодек: MP3
Видео: 688x384 (1.79:1), 25 fps, XviD MPEG-4 ~1608 kbps avg, 0.24 bit/pixel
Аудио: 48 kHz, MPEG Layer 3, 2 ch, ~128.00 kbps avg-

MediaInfo

Код: copyText_writeLink('this.parentNode.parentNode.nextSibling.nextSibling'); General
Complete name : E:\Обучение\shkola_streptiza_2\Пластика кошки. Школа стриптиза. В поисках образа.avi
Format : AVI
Format/Info : Audio Video Interleave
File size : 723 MiB
Duration : 57mn 51s
Overall bit rate : 1 747 Kbps
Writing application : FairUse Wizard - http://fairusewizard.com
Writing library : The best and REALLY easy backup tool
Video
ID : 0
Format : MPEG-4 Visual
Format profile : Advanced Simple@L5
Format settings, BVOP : 1
Format settings, QPel : No
Format settings, GMC : No warppoints
Format settings, Matrix : Default (H.263)
Muxing mode : Packed bitstream
Codec ID : XVID
Codec ID/Hint : XviD
Duration : 57mn 51s
Bit rate : 1 609 Kbps
Width : 688 pixels
Height : 384 pixels
Display aspect ratio : 16:9
Frame rate : 25.000 fps
Color space : YUV
Chroma subsampling : 4:2:0
Bit depth : 8 bits
Scan type : Progressive
Compression mode : Lossy
Bits/(Pixel*Frame) : 0.244
Stream size : 666 MiB (92%)
Writing library : XviD 1.1.0 (UTC 2005-11-22)
Audio
ID : 1
Format : MPEG Audio
Format version : Version 1
Format profile : Layer 3
Mode : Joint stereo
Mode extension : MS Stereo
Codec ID : 55
Codec ID/Hint : MP3
Duration : 57mn 50s
Bit rate mode : Constant
Bit rate : 128 Kbps
Channel(s) : 2 channels
Sampling rate : 48.0 KHz
Compression mode : Lossy
Stream size : 53.0 MiB (7%)
Alignment : Aligned on interleaves
Interleave, duration : 40 ms (1.00 video frame)
Interleave, preload duration : 504 ms
Writing library : LAME3.97b
Encoding settings : -m j -V 4 -q 2 -lowpass 17 -b 128
- -

_________________
Показать сообщения:    

Текущее время: Сегодня 12:22

Часовой пояс: GMT



Вы не можете начинать темы
Вы не можете отвечать на сообщения
Вы не можете редактировать свои сообщения
Вы не можете удалять свои сообщения
Вы не можете голосовать в опросах
Вы не можете прикреплять файлы к сообщениям
Вы не можете скачивать файлы