Ивановский Торрент трекер
Яндекс.Погода
 

[Цитировать]
HUNTER

Планета сокровищ / Treasure Planet- Страна: США
Жанр: приключения, семейный, анимация
Продолжительность: 01:25:51
Год выпуска: 2002
Перевод: Профессиональный (дублированный)-Режиссёр: Рон Клементс, Джон Маскер
Роли озвучивали: Брайан Мюррей, Джозеф Гордон-Левитт, Эмма Томпсон-Описание: Джим Хокинс теперь в поисках не острова, а целой планеты сокровищ! Теперь он бороздит не океан, а космос.
15-летний мальчишка попадает на корабль с пиратами-киборгами и отправляется в захватывающее путешествие. Там он знакомится с корабельным коком, киборгом по имени Джон Сильвер. На плече у Сильвера сидит не привычный попугай, а создание по имени Морф, которое постоянно меняет свою форму. Под чутким руководством кока Джим становится умелым «космоплавателем» и не раз спасает космический галеон от самых серьезных опасностей: черных дыр, взрывов сверхновых и космических штормов.
Но самое тяжелое испытание поджидает юного Джима впереди — предательство близкого друга, который вместе с командой матросов пытается обманом захватить все сокровища и скрыться…-Доп. информация: Представленная запись является уникальной, так как название мультфильма и вступительные титры написаны на русском языке.-Качество: DVB
Формат: MPEG-TS
Видео: MPEG, 720x576 (4:3), 25.000 fps, ~2 293 Kbps
Аудио: MPEG Audio, 48000 Hz, stereo, 192 kbps
Субтитры: отсутствуют-

Отличия русификации СТС от русификации канала Дисней


Подробные технические данные

GeneralID : 1 (0x1)Complete name : I:\Планета сокровищ (Русификация Дисней, 2015).tsFormat : MPEG-TSFile size : 1.43 GiBDuration : 1h 25mnOverall bit rate : 2 389 Kbps
VideoID : 328 (0x148)Menu ID : 1 (0x1)Format : MPEG VideoFormat version : Version 2Format profile : Main@MainFormat settings, BVOP : YesFormat settings, Matrix : DefaultFormat settings, GOP : M=1, N=38Codec ID : 2Duration : 1h 25mnBit rate mode : VariableBit rate : 2 077 KbpsNominal bit rate : 15.0 MbpsWidth : 720 pixelsHeight : 576 pixelsDisplay aspect ratio : 4:3Frame rate : 25.000 fpsStandard : PALColor space : YUVChroma subsampling : 4:2:0Bit depth : 8 bitsScan type : InterlacedScan order : Top Field FirstCompression mode : LossyBits/(Pixel*Frame) : 0.200Stream size : 1.25 GiB (87%)
AudioID : 408 (0x198)Menu ID : 1 (0x1)Format : MPEG AudioFormat version : Version 1Format profile : Layer 2Codec ID : 3Duration : 1h 25mnBit rate mode : ConstantBit rate : 192 KbpsChannel(s) : 2 channelsSampling rate : 48.0 KHzCompression mode : LossyVideo delay : 24msStream size : 118 MiB (8%)Language : Russian

Скриншоты

Релиз:
Показать сообщения:    

Текущее время: 22-Окт 10:59

Часовой пояс: UTC - 1


Вы не можете начинать темы
Вы не можете отвечать на сообщения
Вы не можете редактировать свои сообщения
Вы не можете удалять свои сообщения
Вы не можете голосовать в опросах
Вы не можете прикреплять файлы к сообщениям
Вы не можете скачивать файлы

!ВНИМАНИЕ!
Сайт не предоставляет электронные версии произведений, а занимается лишь коллекционированием и каталогизацией ссылок, присылаемых и публикуемых на форуме нашими читателями. Если вы являетесь правообладателем какого-либо представленного материала и не желаете, чтобы ссылка на него находилась в нашем каталоге, свяжитесь с нами, и мы незамедлительно удалим ее. Файлы для обмена на трекере предоставлены пользователями сайта, и администрация не несет ответственности за их содержание. Просьба не заливать файлы, защищенные авторскими правами, а также файлы нелегального содержания!