Важное объявление!
У Нас Все раздачи мультитрекерные, при нуле пиров в релизах, можете смело вставать на закачку!
 
Автор Сообщение

HUNTER

Стаж:
4 года 5 месяцев
Сообщений:
60866

Репутация: 101

[+] [-]
Вне форума [Профиль] [ЛС]

Планета сокровищ / Treasure Planet-
Год выпуска: 2002
Страна: США
Жанр: мультфильм, фантастика, мелодрама, приключения
Продолжительность: 01:35:23--Перевод:
  • Профессиональный (полное дублирование)
  • Профессиональный (многоголосый, закадровый)
  • Авторский (одноголосый, закадровый) от Aндрей Гаврилов
  • Авторский (одноголосый, закадровый) от Михаил Чадов
  • Авторский (одноголосый, закадровый) от Cергей Визгунов
--Субтитры:
  • Русские
  • Английские
  • Французские
  • Португальские
  • Испанские
--Режиссёр: Рон Клементс, Джон Маскер
Роли озвучивали: Роско Ли Браун, Кори Бертон, Дэйн А. Дэвис, Джозеф Гордон-Левитт, Тони Джей, Остин Мэйджерс, Патрик МакГуэн, Майкл МакШейн, Лори Меткаф, Брайан Мюррей--Описание: Подросток Джим (озв. Джозеф Гордон-Левитт) отличается любознательностью и живым умом, но невольно доставляет маме Саре Хокинс (озв. Лори Меткалф), владелице небольшого трактира «Адмирал Бенбоу», массу хлопот и огорчений. Ситуация принимает совсем неприятный оборот, когда на их заведение совершают налёт пираты, вышедшие на след старого подельника Билли Бонса (озв. Патрик МакГухан). Однако Джим успевает раньше непрошеных гостей завладеть картой с указанием местонахождения полулегендарной планеты сокровищ бесстрашного капитана Флинта. Хокинсу, а также вызвавшемуся помочь астроному, доктору Допплеру (озв. Дэвид Хайд Пирс), предстоит совершить захватывающее космическое путешествие. © Евгений Нефёдов--Качество: BDRip
Формат: MKV
Видео: x264, 1212х720, 4000 kbps, 23.976 fps
Аудио:
  • RUS - AC3, 48.0 KHz, 5.1 ch, 384 kbps - Дубляж
  • RUS - AC3, 48.0 KHz, 5.1 ch, 640 kbps - Многоголосый, закадровый
  • RUS - AC3, 48.0 KHz, 5.1 ch, 640 kbps - Aндрей Гаврилов
  • RUS - AC3, 48.0 KHz, 5.1 ch, 448 kbps - Михаил Чадов
  • RUS - AC3, 48.0 KHz, 2 ch, 192 kbps - Cергей Визгунов
  • UKR - AC3, 48.0 KHz, 2 ch, 192 kbps - Дубляж (Новий Канал)
  • ENG - AC3, 48.0 KHz, 5.1 ch, 640 kbps
  • ENG - AAC, 48.0 KHz, 2 ch, 192 kbps - Комментарии
-

MediaInfo

Код: copyText_writeLink('this.parentNode.parentNode.nextSibling.nextSibling'); D:\Downloads\Treasure Planet [BDRip] [720p].mkv
General
Unique ID : 183248565511360642812052931402643652026 (0x89DC63D450DEEAE6ABB57CC08A79BDBA)
Complete name : D:\Downloads\Treasure Planet [BDRip] [720p].mkv
Format : Matroska
Format version : Version 2
File size : 4.80 GiB
Duration : 1h 35mn
Overall bit rate : 7 203 Kbps
Encoded date : UTC 2012-07-11 08:12:41
Writing application : mkvmerge v3.4.0 ('Rapunzel') сборка от May 15 2010 09:38:20
Writing library : libebml v0.8.0 + libmatroska v0.9.0
Video #1
ID : 1
Format : AVC
Format/Info : Advanced Video Codec
Format profile : [url=mailto:High@L4.1]High@L4.1[/url]
Format settings, CABAC : Yes
Format settings, ReFrames : 9 frames
Codec ID : V_MPEG4/ISO/AVC
Duration : 1h 35mn
Nominal bit rate : 4 000 Kbps
Width : 1 212 pixels
Height : 720 pixels
Display aspect ratio : 1.683
Frame rate mode : Constant
Frame rate : 23.976 fps
Color space : YUV
Chroma subsampling : 4:2:0
Bit depth : 8 bits
Scan type : Progressive
Bits/(Pixel*Frame) : 0.191
Writing library : x264 core 125 r2200 999b753
Encoding settings : cabac=1 / ref=9 / deblock=1:-3:-3 / analyse=0x3:0x113 / me=tesa / subme=11 / psy=1 / psy_rd=0.60:0.00 / mixed_ref=1 / me_range=16 / chroma_me=1 / trellis=2 / 8x8dct=1 / cqm=0 / deadzone=21,11 / fast_pskip=0 / chroma_qp_offset=-2 / threads=12 / lookahead_threads=2 / sliced_threads=0 / nr=0 / decimate=0 / interlaced=0 / bluray_compat=0 / constrained_intra=0 / bframes=6 / b_pyramid=2 / b_adapt=2 / b_bias=0 / direct=3 / weightb=1 / open_gop=0 / weightp=2 / keyint=250 / keyint_min=23 / scenecut=40 / intra_refresh=0 / rc=2pass / mbtree=0 / bitrate=4000 / ratetol=1.0 / qcomp=0.55 / qpmin=0 / qpmax=69 / qpstep=4 / cplxblur=20.0 / qblur=0.5 / ip_ratio=1.40 / pb_ratio=1.30 / aq=1:1.00
Language : English
Default : No
Forced : No
Audio #2
ID : 2
Format : AC-3
Format/Info : Audio Coding 3
Mode extension : CM (complete main)
Format settings, Endianness : Big
Codec ID : A_AC3
Duration : 1h 35mn
Bit rate mode : Constant
Bit rate : 640 Kbps
Channel(s) : 6 channels
Channel positions : Front: L C R, Side: L R, LFE
Sampling rate : 48.0 KHz
Bit depth : 16 bits
Compression mode : Lossy
Stream size : 437 MiB (9%)
Title : MVO
Language : Russian
Default : Yes
Forced : No
Audio #3
ID : 3
Format : AC-3
Format/Info : Audio Coding 3
Mode extension : CM (complete main)
Format settings, Endianness : Big
Codec ID : A_AC3
Duration : 1h 35mn
Bit rate mode : Constant
Bit rate : 384 Kbps
Channel(s) : 6 channels
Channel positions : Front: L C R, Side: L R, LFE
Sampling rate : 48.0 KHz
Bit depth : 16 bits
Compression mode : Lossy
Stream size : 262 MiB (5%)
Title : Dub
Language : Russian
Default : No
Forced : No
Audio #4
ID : 4
Format : AC-3
Format/Info : Audio Coding 3
Mode extension : CM (complete main)
Format settings, Endianness : Big
Codec ID : A_AC3
Duration : 1h 35mn
Bit rate mode : Constant
Bit rate : 640 Kbps
Channel(s) : 6 channels
Channel positions : Front: L C R, Side: L R, LFE
Sampling rate : 48.0 KHz
Bit depth : 16 bits
Compression mode : Lossy
Stream size : 437 MiB (9%)
Title : Gavrilov
Language : Russian
Default : No
Forced : No
Audio #5
ID : 5
Format : AC-3
Format/Info : Audio Coding 3
Mode extension : CM (complete main)
Format settings, Endianness : Big
Codec ID : A_AC3
Duration : 1h 35mn
Bit rate mode : Constant
Bit rate : 448 Kbps
Channel(s) : 6 channels
Channel positions : Front: L C R, Side: L R, LFE
Sampling rate : 48.0 KHz
Bit depth : 16 bits
Compression mode : Lossy
Stream size : 306 MiB (6%)
Title : Chadov
Language : Russian
Default : No
Forced : No
Audio #6
ID : 6
Format : AC-3
Format/Info : Audio Coding 3
Mode extension : CM (complete main)
Format settings, Endianness : Big
Codec ID : A_AC3
Duration : 1h 35mn
Bit rate mode : Constant
Bit rate : 192 Kbps
Channel(s) : 2 channels
Channel positions : Front: L R
Sampling rate : 48.0 KHz
Bit depth : 16 bits
Compression mode : Lossy
Stream size : 131 MiB (3%)
Title : Vizgunov
Language : Russian
Default : No
Forced : No
Audio #7
ID : 7
Format : AC-3
Format/Info : Audio Coding 3
Mode extension : CM (complete main)
Format settings, Endianness : Big
Codec ID : A_AC3
Duration : 1h 35mn
Bit rate mode : Constant
Bit rate : 192 Kbps
Channel(s) : 2 channels
Channel positions : Front: L R
Sampling rate : 48.0 KHz
Bit depth : 16 bits
Compression mode : Lossy
Stream size : 131 MiB (3%)
Title : Dub
Language : Ukrainian
Default : No
Forced : No
Audio #8
ID : 8
Format : AC-3
Format/Info : Audio Coding 3
Mode extension : CM (complete main)
Format settings, Endianness : Big
Codec ID : A_AC3
Duration : 1h 35mn
Bit rate mode : Constant
Bit rate : 640 Kbps
Channel(s) : 6 channels
Channel positions : Front: L C R, Side: L R, LFE
Sampling rate : 48.0 KHz
Bit depth : 16 bits
Compression mode : Lossy
Stream size : 437 MiB (9%)
Title : English DD5.1 640Kbps
Language : English
Default : No
Forced : No
Audio #9
ID : 9
Format : AAC
Format/Info : Advanced Audio Codec
Format profile : HE-AAC / LC
Codec ID : A_AAC
Duration : 1h 35mn
Channel(s) : 2 channels
Channel positions : Front: L R
Sampling rate : 48.0 KHz / 24.0 KHz
Compression mode : Lossy
Delay relative to video : 31ms
Title : Commentary
Language : English
Default : No
Forced : No
Text #10
ID : 10
Format : UTF-8
Codec ID : S_TEXT/UTF8
Codec ID/Info : UTF-8 Plain Text
Language : Russian
Default : No
Forced : No
Text #11
ID : 11
Format : UTF-8
Codec ID : S_TEXT/UTF8
Codec ID/Info : UTF-8 Plain Text
Language : English
Default : No
Forced : No
Text #12
ID : 12
Format : UTF-8
Codec ID : S_TEXT/UTF8
Codec ID/Info : UTF-8 Plain Text
Language : French
Default : No
Forced : No
Text #13
ID : 13
Format : UTF-8
Codec ID : S_TEXT/UTF8
Codec ID/Info : UTF-8 Plain Text
Language : Portuguese
Default : No
Forced : No
Text #14
ID : 14
Format : UTF-8
Codec ID : S_TEXT/UTF8
Codec ID/Info : UTF-8 Plain Text
Language : Spanish
Default : No
Forced : No
-

Скриншоты


_________________
Показать сообщения:    

Текущее время: Сегодня 15:32

Часовой пояс: GMT



Вы не можете начинать темы
Вы не можете отвечать на сообщения
Вы не можете редактировать свои сообщения
Вы не можете удалять свои сообщения
Вы не можете голосовать в опросах
Вы не можете прикреплять файлы к сообщениям
Вы не можете скачивать файлы
Наши партнеры: интернет магазин Ивановского трикотажа textilla.ru