Важное объявление!
У Нас Все раздачи мультитрекерные, при нуле пиров в релизах, можете смело вставать на закачку!
Статистика раздачи
Размер:     |    Зарегистрирован:     |    Скачан:     |   
Нет
 
     
 
 
Автор Сообщение

HUNTER

Стаж:
5 лет
Сообщений:
68004

Репутация: 101

[+] [-]
Вне форума [Профиль] [ЛС]

Планета обезьян / Planet of the Apes---
Год: 1974 – 1981
Страна: США
Студия: 20th Century Fox Television
Жанр: фантастика, триллер, приключения
Продолжительность: 14~00:50:00
Озвучка:
Серия 1,3,4,7-9 - перевод: veretskiy, озвучивание: VO kiitos (1001 cinema & Gravi-TV)
Серии 2,5,6,14 - 5 канал Санкт Петербург - MVO
Серии 10-13 - релиз-группа "OMSKBIRD records" (10-12 - VO, 13 - DVO)
Субтитры: английские
Режиссёры: Арнольд Лейвен, Дон МакДугалл, Бернард МакЭвети
В ролях: Родди МакДауэлл, Рон Харпер, Джеймс Нафтон, Марк Ленард, Рон Стейн, Бут Колман, Элдон Бёрк, Джон Хойт, Джэклин Скотт, Джон Милфорд--Описание:
В особых представлениях эта эпопея не нуждается. Достаточно сказать, что это - своеобразное продолжение классической пенталогии о Планете Обезьян, снятой по мотивам романа Пьера Булля. За сериалом из 14 эпизодов последовали многочисленные комиксы, мультсериал и ремейк в постановке Тима Бёртона 2001 года.
Отправившись в космическое путешествие 19 августа 1980 года, трое астронавтов из НАСА попадают в 3085 год по земному календарю на загадочную планету системы Альфа Центавра, целиком населенную человекоподобными обезьянами.
-- --Качество: DVDRip-AVC
Энкод: LonerD
Формат: MKV
Видео кодек: H.264
Аудио кодек: AC3
Видео: H.264, 704x480@704x540, 23.976 fps, 1300-1900 Kbps
Аудио 1: AC3, 48.0 KHz, 2ch, 192 Kbps - Russian
Аудио 2: AC3, 48.0 KHz, 2ch, 192 Kbps - English
Субтитры: English--

Список серий

Список серий
Escape from Tomorrow
The Gladiators
The Trap
The Good Seeds
The Legacy
Tomorrow's Tide
The Surgeon
The Deception
The Horse Race
The Interrogation
The Tyrant
The Cure
The Liberator
Up Above the World So High

MI

x264

Код: copyText_writeLink('this.parentNode.parentNode.nextSibling.nextSibling');
avs [info]: 704x480p 8:9 @ 24000/1001 fps (cfr)
x264 [info]: using SAR=8/9
x264 [info]: using cpu capabilities: MMX2 SSE2Fast SSSE3 FastShuffle SSE4.2
x264 [info]: profile High, level 4.1
x264 [info]: frame I:563 Avg QP:18.51 size: 52695
x264 [info]: frame P:19388 Avg QP:19.98 size: 17224
x264 [info]: frame B:51588 Avg QP:22.54 size: 4152
x264 [info]: consecutive B-frames: 6.7% 2.0% 14.0% 23.9% 21.2% 31.2% 0.9% 0.1% 0.1%
x264 [info]: mb I I16..4: 4.2% 86.3% 9.4%
x264 [info]: mb P I16..4: 0.7% 8.3% 1.0% P16..4: 48.8% 25.5% 10.4% 0.5% 0.7% skip: 4.1%
x264 [info]: mb B I16..4: 0.0% 0.6% 0.1% B16..8: 35.2% 9.8% 2.8% direct: 5.7% skip:45.9% L0:29.9% L1:41.7% BI:28.4%
x264 [info]: 8x8 transform intra:83.5% inter:50.5%
x264 [info]: coded y,uvDC,uvAC intra: 91.5% 92.6% 74.5% inter: 24.6% 28.1% 7.5%
x264 [info]: i16 v,h,dc,p: 43% 12% 12% 32%
x264 [info]: i8 v,h,dc,ddl,ddr,vr,hd,vl,hu: 13% 11% 10% 8% 10% 11% 11% 12% 14%
x264 [info]: i4 v,h,dc,ddl,ddr,vr,hd,vl,hu: 9% 8% 4% 9% 15% 14% 14% 12% 15%
x264 [info]: i8c dc,h,v,p: 46% 22% 17% 15%
x264 [info]: Weighted P-Frames: Y:7.0% UV:3.5%
x264 [info]: ref P L0: 50.7% 14.4% 18.3% 3.4% 3.6% 2.0% 2.3% 1.0% 1.2% 0.8% 1.0% 0.8% 0.4% 0.0%
x264 [info]: ref B L0: 88.9% 7.4% 1.3% 0.7% 0.4% 0.4% 0.3% 0.2% 0.2% 0.1% 0.1%
x264 [info]: ref B L1: 97.9% 2.1%
x264 [info]: kb/s:1549.11
Код: copyText_writeLink('this.parentNode.parentNode.nextSibling.nextSibling');
J:\Serial\Planet.of.the.Apes\Planet.of.the.Apes.TV.s01e01.Escape.From.Tomorrow.DVDRip.x264.mkv
General
Unique ID : 215938505003973896707708994394495972883 (0xA2743E4878DC28DEB565816795D8F613)
Complete name : J:\Serial\Planet.of.the.Apes\Planet.of.the.Apes.TV.s01e01.Escape.From.Tomorrow.DVDRip.x264.mkv
Format : Matroska
Format version : Version 2
File size : 688 MiB
Duration : 49mn 43s
Overall bit rate : 1 935 Kbps
Movie name : Planet of the Apes TV DVDRip-AVC - [LonerD © DreamLair.net]
Encoded date : UTC 2011-06-26 12:52:06
Writing application : mkvmerge v4.8.0 ('I Got The...') built on May 24 2011 03:12:58
Writing library : libebml v1.2.0 + libmatroska v1.1.0
Video #1
ID : 1
Format : AVC
Format/Info : Advanced Video Codec
Format profile : [url=mailto:High@L4.1]High@L4.1[/url]
Format settings, CABAC : Yes
Format settings, ReFrames : 12 frames
Codec ID : V_MPEG4/ISO/AVC
Duration : 49mn 43s
Bit rate : 1 513 Kbps
Width : 704 pixels
Height : 480 pixels
Display aspect ratio : 4:3
Frame rate : 23.976 fps
Standard : NTSC
Color space : YUV
Chroma subsampling : 4:2:0
Bit depth : 8 bits
Scan type : Progressive
Bits/(Pixel*Frame) : 0.187
Stream size : 538 MiB (78%)
Title : Planet of the Apes TV s01e01 - Escape From Tomorrow - [LonerD © DreamLair.net]
Writing library : x264 core 115 r1937 aa21558
Encoding settings : cabac=1 / ref=12 / deblock=1:-2:-1 / analyse=0x3:0x133 / me=umh / subme=9 / psy=1 / psy_rd=1.00:0.20 / mixed_ref=1 / me_range=36 / chroma_me=1 / trellis=2 / 8x8dct=1 / cqm=0 / deadzone=21,11 / fast_pskip=1 / chroma_qp_offset=-3 / threads=12 / sliced_threads=0 / nr=0 / decimate=1 / interlaced=0 / bluray_compat=0 / constrained_intra=0 / bframes=8 / b_pyramid=2 / b_adapt=2 / b_bias=0 / direct=1 / weightb=1 / open_gop=0 / weightp=2 / keyint=250 / keyint_min=23 / scenecut=40 / intra_refresh=0 / rc=crf / mbtree=0 / crf=20.0 / qcomp=0.75 / qpmin=10 / qpmax=69 / qpstep=4 / ip_ratio=1.40 / pb_ratio=1.30 / aq=2:1.00
Language : English
Default : Yes
Forced : No
Audio #2
ID : 2
Format : AC-3
Format/Info : Audio Coding 3
Mode extension : CM (complete main)
Format settings, Endianness : Big
Codec ID : A_AC3
Duration : 49mn 43s
Bit rate mode : Constant
Bit rate : 192 Kbps
Channel(s) : 2 channels
Channel positions : Front: L R
Sampling rate : 48.0 KHz
Bit depth : 16 bits
Compression mode : Lossy
Stream size : 68.3 MiB (10%)
Language : Russian
Default : Yes
Forced : No
Audio #3
ID : 3
Format : AC-3
Format/Info : Audio Coding 3
Mode extension : CM (complete main)
Format settings, Endianness : Big
Codec ID : A_AC3
Duration : 49mn 43s
Bit rate mode : Constant
Bit rate : 192 Kbps
Channel(s) : 2 channels
Channel positions : Front: L R
Sampling rate : 48.0 KHz
Bit depth : 16 bits
Compression mode : Lossy
Delay relative to video : 6ms
Stream size : 68.3 MiB (10%)
Language : English
Default : No
Forced : No
Text #4
ID : 4
Format : UTF-8
Codec ID : S_TEXT/UTF8
Codec ID/Info : UTF-8 Plain Text
Language : English
Default : No
Forced : No
Menu
00:00:00.000 : en:Chapter 1
00:01:13.200 : en:Chapter 2
00:06:14.533 : en:Chapter 3
00:09:52.799 : en:Chapter 4
00:13:29.999 : en:Chapter 5
00:17:11.966 : en:Chapter 6
00:19:03.966 : en:Chapter 7
00:23:38.766 : en:Chapter 8
00:25:32.433 : en:Chapter 9
00:27:20.066 : en:Chapter 10
00:30:53.599 : en:Chapter 11
00:33:38.566 : en:Chapter 12
00:37:54.566 : en:Chapter 13
00:43:42.932 : en:Chapter 14
00:46:02.732 : en:Chapter 15
00:49:06.666 : en:Chapter 16-- --

_________________
Показать сообщения:    

Текущее время: Сегодня 04:53

Часовой пояс: GMT



Вы не можете начинать темы
Вы не можете отвечать на сообщения
Вы не можете редактировать свои сообщения
Вы не можете удалять свои сообщения
Вы не можете голосовать в опросах
Вы не можете прикреплять файлы к сообщениям
Вы не можете скачивать файлы