Планета обезьян: Революция / Dawn of the Planet of the Apes (Мэтт Ривз / Mett Rivz) [2014 г., фантастика, боевик, драма, WEB-DLRip] DUB [звук с TS] :: Ивановский Торрент трекер
Важное объявление!
У Нас Все раздачи мультитрекерные, при нуле пиров в релизах, можете смело вставать на закачку!
Статистика раздачи
Размер:     |    Зарегистрирован:     |    Скачан:     |   
Нет
 
     
 
 
Автор Сообщение

HUNTER

Стаж:
4 года 11 месяцев
Сообщений:
66077

Репутация: 101

[+] [-]
Вне форума [Профиль] [ЛС]


Планета обезьян: Революция / Dawn of the Planet of the Apes«Молитесь за мир, готовьтесь к войне»-
Год выхода: 2014
Страна: США
Жанр: фантастика, боевик, драма
Продолжительность: 02:10:42
Перевод: Профессиональный (полное дублирование) [звук с TS]
Субтитры: Отсутствуют
Режиссер: Мэтт Ривз
В ролях: Энди Серкис, Джейсон Кларк, Гари Олдман, Кери Рассел, Тоби Кеббелл, Коди, Смит-МакФи, Кирк Асеведо, Ник Тёрстон, Терри Нотари, Карин Коновал
О фильме: Численность генетически модифицированных обезьян, возглавляемых Цезарем, продолжает увеличиваться, но обезьянам угрожают люди, которым удалось выжить во время ужасной эпидемии десятилетней давности. Поначалу между соперниками устанавливается хрупкий мир, но он оказывается недолговечным. Обезьяны и люди находятся на грани войны, в ходе которой станет понятно, кто из них в будущем станет безраздельно править планетой.
Качество: WEB-DLRip
Формат: avi
Видео кодек: XviD
Аудио кодек: AC3
Видео: ~1857 kb/s, 720x384, 23.976 fps
Аудио #1: 2 ch, 192 Kbps, 48.0 KHz [Russian]
Аудио #2: 2 ch, 192 Kbps, 48.0 KHz [English]

Mediainfo

Код: copyText_writeLink('this.parentNode.parentNode.nextSibling.nextSibling');
E:с торрентовPlaneta.Obez9n.Rev0lutsi9.2014.Dt.WEB-DLRip.2100MB.avi
General
Complete name : E:с торрентовPlaneta.Obez9n.Rev0lutsi9.2014.Dt.WEB-DLRip.2100MB.avi
Format : AVI
Format/Info : Audio Video Interleave
Format profile : OpenDML
File size : 2.05 GiB
Duration : 2h 10mn
Overall bit rate : 2 248 Kbps
Writing application : VirtualDubMod 1.5.10.2 (build 2540/release)
Writing library : VirtualDubMod build 2540/release
Video #0
ID : 0
Format : MPEG-4 Visual
Format profile : Advanced Simple@L5
Format settings, BVOP : 2
Format settings, QPel : No
Format settings, GMC : No warppoints
Format settings, Matrix : Default (MPEG)
Codec ID : XVID
Codec ID/Hint : XviD
Duration : 2h 10mn
Bit rate : 1 846 Kbps
Width : 720 pixels
Height : 384 pixels
Display aspect ratio : 1.85:1
Frame rate : 23.976 fps
Color space : YUV
Chroma subsampling : 4:2:0
Bit depth : 8 bits
Scan type : Progressive
Compression mode : Lossy
Bits/(Pixel*Frame) : 0.278
Stream size : 1.69 GiB (82%)
Writing library : XviD 1.2.1 (UTC 2008-12-04)
Audio #1
ID : 1
Format : AC-3
Format/Info : Audio Coding 3
Mode extension : CM (complete main)
Format settings, Endianness : Big
Codec ID : 2000
Duration : 2h 10mn
Bit rate mode : Constant
Bit rate : 192 Kbps
Channel(s) : 2 channels
Channel positions : Front: L R
Sampling rate : 48.0 KHz
Bit depth : 16 bits
Compression mode : Lossy
Stream size : 179 MiB (9%)
Alignment : Split accross interleaves
Interleave, duration : 42 ms (1.00 video frame)
Interleave, preload duration : 500 ms
Audio #2
ID : 2
Format : AC-3
Format/Info : Audio Coding 3
Mode extension : CM (complete main)
Format settings, Endianness : Big
Codec ID : 2000
Duration : 2h 10mn
Bit rate mode : Constant
Bit rate : 192 Kbps
Channel(s) : 2 channels
Channel positions : Front: L R
Sampling rate : 48.0 KHz
Bit depth : 16 bits
Compression mode : Lossy
Stream size : 179 MiB (9%)
Alignment : Split accross interleaves
Interleave, duration : 42 ms (1.00 video frame)
Interleave, preload duration : 500 ms[code]

Рейтинг

Доп. информация

Бюджет: $170 000 000
Сборы в США: $208 303 743
Сборы в мире: + $498 882 853 = $707 186 596
Cборы в России: $21 080 688
Дата мировой премьеры: 26 июня 2014
Дата российской премьеры: 17 июля 2014, «Двадцатый Век Фокс СНГ»
Релиз на DVD: 20 ноября 2014, «Двадцатый Век Фокс СНГ»
Релиз на Blu-Ray: 20 ноября 2014, «Двадцатый Век Фокс СНГ»

Скриншоты

-Источник:

_________________
Показать сообщения:    

Текущее время: Сегодня 02:10

Часовой пояс: GMT



Вы не можете начинать темы
Вы не можете отвечать на сообщения
Вы не можете редактировать свои сообщения
Вы не можете удалять свои сообщения
Вы не можете голосовать в опросах
Вы не можете прикреплять файлы к сообщениям
Вы не можете скачивать файлы