Ивановский Торрент трекер
Яндекс.Погода
 

[Цитировать]
HUNTER

Планета обезьян: Революция / Dawn of the Planet of the Apes«Молитесь за мир, готовьтесь к войне»-- Год выпуска: 2014
Страна: США / Chernin Entertainment
Жанр: фантастика, боевик, драма
Продолжительность: 02:10:37
Озвучивание: Дублированное [Лицензия, Blu-ray 3D EUR] / Любительское (одноголосное) [Д. Есарев]
Субтитры: Russian, English
В ролях: Энди Серкис, Джейсон Кларк, Гари Олдман, Кери Рассел, Тоби Кеббелл, Коди, Смит-МакФи, Кирк Асеведо, Ник Тёрстон, Терри Нотари, Карин Коновал
Режиссёр: Мэтт Ривз

Численность генетически модифицированных обезьян, возглавляемых Цезарем, продолжает увеличиваться, но обезьянам угрожают люди, которым удалось выжить во время ужасной эпидемии десятилетней давности. Поначалу между соперниками устанавливается хрупкий мир, но он оказывается недолговечным. Обезьяны и люди находятся на грани войны, в ходе которой станет понятно, кто из них в будущем станет безраздельно править планетой.--Качество: WEB-DL 1080p
Формат: MKV
Видео кодек: AVC
Аудио кодек: DTS, AC-3
Видео: AVC, 1916x1034 (1.85:1), 23.976 fps, 4 657 Kbps (0.098 bit/pixel)
Аудио:
  • Аудио #1: DTS, 48.0 KHz, 6 ch, 768 Kbps, CBR (Russian) - Дубляж Blu-ray 3D EUR
  • Аудио #2: AC-3, 48.0 KHz, 6 ch, 384 Kbps, CBR (Russian) - Д. Есарев
  • Аудио #3: AC-3, 48.0 KHz, 6 ch, 448 Kbps, CBR (Ukrainian) - Дубляж Blu-ray 3D EUR
  • Аудио #4: AC-3, 48.0 KHz, 6 ch, 384 Kbps, CBR (English)
-Примечание: Присутствуют русские вшитые субтитры на речь обезьян. Любительская аудио-дорожка содержит озвученную речь обезьян.-

Рейтинг

-

MediaInfo

Код: copyText_writeLink('this.parentNode.parentNode.nextSibling.nextSibling');
General
Unique ID                                : 210469330195547932809549204403660730690 (0x9E56EB256DDAC875BCADAF2581CB3142)
Complete name                            : G:\Downloads\Planeta.obezyan.2014.D.L1.WEBDL.1080p.mkv
Format                                   : Matroska
Format version                           : Version 4 / Version 2
File size                                : 6.17 GiB
Duration                                 : 2h 10mn
Overall bit rate                         : 6 762 Kbps
Movie name                               : Planeta.obezyan.2014.D.L1.WEBDL.1080p.[TimeMashine]
Encoded date                             : UTC 2014-11-04 17:47:37
Writing application                      : mkvmerge v7.2.0 ('On Every Street') 64bit built on Sep 13 2014 15:52:10
Writing library                          : libebml v1.3.0 + libmatroska v1.4.1
DURATION                                 : 02:10:22.912000000
NUMBER_OF_FRAMES                         : 244466
NUMBER_OF_BYTES                          : 438083072
_STATISTICS_WRITING_APP                  : mkvmerge v7.2.0 ('On Every Street') 64bit built on Sep 13 2014 15:52:10
_STATISTICS_WRITING_DATE_UTC             : 2014-11-04 17:47:37
_STATISTICS_TAGS                         : BPS DURATION NUMBER_OF_FRAMES NUMBER_OF_BYTES
Attachment                               : Yes
Video
ID                                       : 1
Format                                   : AVC
Format/Info                              : Advanced Video Codec
Format profile                           : High@L4.0
Format settings, CABAC                   : Yes
Format settings, ReFrames                : 4 frames
Codec ID                                 : V_MPEG4/ISO/AVC
Duration                                 : 2h 10mn
Bit rate                                 : 4 644 Kbps
Width                                    : 1 916 pixels
Height                                   : 1 034 pixels
Display aspect ratio                     : 1.85:1
Frame rate mode                          : Constant
Frame rate                               : 23.976 fps
Color space                              : YUV
Chroma subsampling                       : 4:2:0
Bit depth                                : 8 bits
Scan type                                : Progressive
Bits/(Pixel*Frame)                       : 0.098
Stream size                              : 4.24 GiB (69%)
Title                                    : Planeta.obezyan.2014.D.L1.WEBDL.1080p.
Language                                 : English
Default                                  : Yes
Forced                                   : No
Color primaries                          : BT.709
Transfer characteristics                 : BT.709
Matrix coefficients                      : BT.709
Audio #1
ID                                       : 2
Format                                   : DTS
Format/Info                              : Digital Theater Systems
Mode                                     : 16
Format settings, Endianness              : Big
Codec ID                                 : A_DTS
Duration                                 : 2h 10mn
Bit rate mode                            : Constant
Bit rate                                 : 768 Kbps
Channel(s)                               : 6 channels
Channel positions                        : Front: L C R, Side: L R, LFE
Sampling rate                            : 48.0 KHz
Bit depth                                : 24 bits
Compression mode                         : Lossy
Stream size                              : 717 MiB (11%)
Title                                    : DTS 5.1 @ 768 kbps - DUB, Blu-ray 3D EUR
Language                                 : Russian
Default                                  : Yes
Forced                                   : No
Audio #2
ID                                       : 3
Format                                   : AC-3
Format/Info                              : Audio Coding 3
Mode extension                           : CM (complete main)
Format settings, Endianness              : Big
Codec ID                                 : A_AC3
Duration                                 : 2h 10mn
Bit rate mode                            : Constant
Bit rate                                 : 384 Kbps
Channel(s)                               : 6 channels
Channel positions                        : Front: L C R, Side: L R, LFE
Sampling rate                            : 48.0 KHz
Bit depth                                : 16 bits
Compression mode                         : Lossy
Stream size                              : 359 MiB (6%)
Title                                    : Есарев
Language                                 : Russian
Default                                  : No
Forced                                   : No
Audio #3
ID                                       : 4
Format                                   : AC-3
Format/Info                              : Audio Coding 3
Mode extension                           : CM (complete main)
Format settings, Endianness              : Big
Codec ID                                 : A_AC3
Duration                                 : 2h 10mn
Bit rate mode                            : Constant
Bit rate                                 : 448 Kbps
Channel(s)                               : 6 channels
Channel positions                        : Front: L C R, Side: L R, LFE
Sampling rate                            : 48.0 KHz
Bit depth                                : 16 bits
Compression mode                         : Lossy
Stream size                              : 419 MiB (7%)
Title                                    : AC3 5.1 @ 448 kbps - DUB, Blu-ray 3D EUR
Language                                 : Ukrainian
Default                                  : No
Forced                                   : No
Audio #4
ID                                       : 5
Format                                   : AC-3
Format/Info                              : Audio Coding 3
Mode extension                           : CM (complete main)
Format settings, Endianness              : Big
Codec ID                                 : A_AC3
Duration                                 : 2h 10mn
Bit rate mode                            : Constant
Bit rate                                 : 384 Kbps
Channel(s)                               : 6 channels
Channel positions                        : Front: L C R, Side: L R, LFE
Sampling rate                            : 48.0 KHz
Bit depth                                : 16 bits
Compression mode                         : Lossy
Stream size                              : 359 MiB (6%)
Title                                    : Original
Language                                 : English
Default                                  : No
Forced                                   : No
Text #1
ID                                       : 6
Format                                   : UTF-8
Codec ID                                 : S_TEXT/UTF8
Codec ID/Info                            : UTF-8 Plain Text
Language                                 : Russian
Default                                  : Yes
Forced                                   : No
Text #2
ID                                       : 7
Format                                   : UTF-8
Codec ID                                 : S_TEXT/UTF8
Codec ID/Info                            : UTF-8 Plain Text
Language                                 : English
Default                                  : No
Forced                                   : No
Menu
00:00:00.000                             : en:1
00:03:19.000                             : en:2
00:07:32.000                             : en:3
00:12:33.000                             : en:4
00:16:20.000                             : en:5
00:18:43.000                             : en:6
00:21:49.000                             : en:7
00:25:23.000                             : en:8
00:29:42.000                             : en:9
00:31:46.000                             : en:10
00:36:39.000                             : en:11
00:39:03.000                             : en:12
00:40:52.000                             : en:13
00:44:07.000                             : en:14
00:48:06.000                             : en:15
00:50:26.000                             : en:16
00:53:42.000                             : en:17
00:57:19.000                             : en:18
01:01:12.000                             : en:19
01:02:29.000                             : en:20
01:04:18.000                             : en:21
01:06:15.000                             : en:22
01:09:25.000                             : en:23
01:13:50.000                             : en:24
01:17:15.000                             : en:25
01:20:46.000                             : en:26
01:23:21.000                             : en:27
01:26:01.000                             : en:28
01:28:12.000                             : en:29
01:33:16.000                             : en:30
01:35:45.000                             : en:31
01:38:30.000                             : en:32
01:40:34.000                             : en:33
01:43:59.000                             : en:34
01:45:57.000                             : en:35
01:47:46.000                             : en:36
01:52:05.000                             : en:37
01:56:18.000                             : en:38
02:00:21.000                             : en:39
02:01:25.000                             : en:40

Скриншоты

-Источник:
Показать сообщения:    

Текущее время: 24-Сен 22:11

Часовой пояс: UTC - 1


Вы не можете начинать темы
Вы не можете отвечать на сообщения
Вы не можете редактировать свои сообщения
Вы не можете удалять свои сообщения
Вы не можете голосовать в опросах
Вы не можете прикреплять файлы к сообщениям
Вы не можете скачивать файлы

!ВНИМАНИЕ!
Сайт не предоставляет электронные версии произведений, а занимается лишь коллекционированием и каталогизацией ссылок, присылаемых и публикуемых на форуме нашими читателями. Если вы являетесь правообладателем какого-либо представленного материала и не желаете, чтобы ссылка на него находилась в нашем каталоге, свяжитесь с нами, и мы незамедлительно удалим ее. Файлы для обмена на трекере предоставлены пользователями сайта, и администрация не несет ответственности за их содержание. Просьба не заливать файлы, защищенные авторскими правами, а также файлы нелегального содержания!