Ивановский Торрент трекер
Яндекс.Погода
 

[Цитировать]
HUNTER

Планета людей
Страна: Россия
Жанр: Мультфильм
Продолжительность: 00:48:56
Год выпуска: 1999
Перевод: Не требуется
Русские субтитры: нет
Режиссёр: Владлен Барбэ
Роли озвучивали: информации в фильме нет.
Описание: Музыкальный мультфильм по мотивам книги Питера Спайера.
Воображаемое путешествие девочки Кары и ее дедушки по планете Земля в рассуждении о том, какими должны стать люди планеты, чтобы быть счастливыми.
Доп. информация: Мультфильм классифицирован как отечественный по основной киностудии "Классика" и главному режиссеру, но это международный проект.
Семпл: http://multi-up.com/471684
Качество: VHSRip
Формат: AVI
Видео: DivX 5, 640х480 (4/3), 25.000 fps, 1 799 Kbps
Аудио: MPEG Audio, 48,0 KHz, 2 channels, 128 Kbps
Субтитры: отсутствуют

Подробные технические данные

D:\Torrent\Планета людей.avi General Complete name : D:\Torrent\Планета людей.avi Format : DivX Format/Info : Hack of AVI File size : 678 MiB Duration : 48mn 56s Overall bit rate : 1 937 Kbps Video #0 ID : 0 Format : MPEG-4 Visual Format settings, BVOP : No Format settings, QPel : No Format settings, GMC : No warppoints Format settings, Matrix : Default (H.263) Codec ID : DX50 Codec ID/Hint : DivX 5 Duration : 48mn 56s Bit rate : 1 799 Kbps Width : 640 pixels Height : 480 pixels Display aspect ratio : 4:3 Frame rate : 25.000 fps Resolution : 24 bits Colorimetry : 4:2:0 Scan type : Progressive Bits/(Pixel*Frame) : 0.234 Stream size : 630 MiB (93%) Title : Video Writing library : DivX 6.6.1.4 Audio #1 ID : 1 Format : MPEG Audio Format version : Version 1 Format profile : Layer 3 Codec ID : 55 Codec ID/Hint : MP3 Duration : 48mn 56s Bit rate mode : Constant Bit rate : 128 Kbps Channel(s) : 2 channels Sampling rate : 48.0 KHz Resolution : 16 bits Stream size : 44.8 MiB (7%) Alignment : Split accross interleaves Interleave, duration : 40 ms (1.00 video frame) Interleave, preload duration : 500 ms Title : Audio Writing library : LAME3.96

Скриншоты



Показать сообщения:    

Текущее время: 12-Дек 12:32

Часовой пояс: UTC ± 0


Вы не можете начинать темы
Вы не можете отвечать на сообщения
Вы не можете редактировать свои сообщения
Вы не можете удалять свои сообщения
Вы не можете голосовать в опросах
Вы не можете прикреплять файлы к сообщениям
Вы не можете скачивать файлы

!ВНИМАНИЕ!
Сайт не предоставляет электронные версии произведений, а занимается лишь коллекционированием и каталогизацией ссылок, присылаемых и публикуемых на форуме нашими читателями. Если вы являетесь правообладателем какого-либо представленного материала и не желаете, чтобы ссылка на него находилась в нашем каталоге, свяжитесь с нами, и мы незамедлительно удалим ее. Файлы для обмена на трекере предоставлены пользователями сайта, и администрация не несет ответственности за их содержание. Просьба не заливать файлы, защищенные авторскими правами, а также файлы нелегального содержания!