Важное объявление!
У Нас Все раздачи мультитрекерные, при нуле пиров в релизах, можете смело вставать на закачку!
 
Автор Сообщение

HUNTER

Стаж:
4 года 9 месяцев
Сообщений:
65057

Репутация: 101

[+] [-]
Вне форума [Профиль] [ЛС]

Пламя страсти / Firelight
Страна: Великобритания, США
Студия: Carnival Film & Television, Hollywood Pictures, Wind Dancer Productions
Жанр: драма, мелодрама
Год выпуска: 1997
Продолжительность: 01:43:51
Перевод 1: Профессиональный (двухголосый закадровый)
Перевод 2: Авторский (одноголосый закадровый) Ю. Сербин
Cубтитры: русские, английские
Оригинальная аудиодорожка: английский
Режиссер: Уильям Николсон / William Nicholson
В ролях: Софи Марсо, Стивен Диллэйн, Кевин Андерсон, Лия Уильямс, Джосс Экланд, Сэлли Декстер, Эмма Амос, Мэгги МакКарти
Описание: 1839 год. Элизабет, чтобы помочь отцу расплатиться с долгами, приезжает из Швейцарии в Лондон и устраивается работать гувернанткой. Но денег, которые она зарабатывает, не хватает, и Элизабет вынуждена согласиться на сомнительное предложение английского аристократа, основательно подкрепленное деньгами.
Вопреки ее ожиданиям они инкогнито проводят три восхитительные ночи, полные всепоглощающей страсти. Но затем им приходится расстаться, правда, сделать это оказывается гораздо сложнее, чем поначалу казалось им обоим.-[img]https://rating.kinopoisk.ru/15073.gif[/img] -Сэмпл: https://yadi.sk/i/Gn893mTbvBtX7
Тип релиза: WEB-DL 1080p
Контейнер: MKV
Видео: h.264, 1920x816, 23.976 fps, 11600 kbps
Аудио #1: Russian: AC3 2.0, 48 kHz, 192 kbps avg |Двухголосый закадровый|
Аудио #2: Russian: AC3 2.0, 48 kHz, 192 kbps avg |Одноголосый закадровый, Ю. Сербин|
Аудио #3: English: E-AC3 2.0, 48 kHz, 224 kbps avg |Оригинал|
Формат субтитров: softsub (SRT)

MediaInfo

Complete name : D:\Загрузки\Firelight.1997.WEB-DL.1080p.WEB-DL.2xRus.Eng.HDCLUB.mkv
Format : Matroska
Format version : Version 4 / Version 2
File size : 9.01 GiB
Duration : 1h 43mn
Overall bit rate mode : Variable
Overall bit rate : 12.4 Mbps
Encoded date : UTC 2016-09-20 17:49:27
Writing application : mkvmerge v9.4.2 ('So High') 64bit
Writing library : libebml v1.3.4 + libmatroska v1.4.5
Video
ID : 1
Format : AVC
Format/Info : Advanced Video Codec
Format profile : High@L4
Format settings, CABAC : Yes
Format settings, ReFrames : 4 frames
Codec ID : V_MPEG4/ISO/AVC
Duration : 1h 43mn
Bit rate mode : Variable
Bit rate : 11.8 Mbps
Maximum bit rate : 15.0 Mbps
Width : 1 920 pixels
Height : 816 pixels
Display aspect ratio : 2.35:1
Frame rate mode : Constant
Frame rate : 23.976 (24000/1001) fps
Color space : YUV
Chroma subsampling : 4:2:0
Bit depth : 8 bits
Scan type : Progressive
Bits/(Pixel*Frame) : 0.314
Stream size : 8.57 GiB (95%)
Writing library : x264 core 148 r2623 d5b2374
Encoding settings : cabac=1 / ref=4 / deblock=1:-1:-1 / analyse=0x3:0x133 / me=umh / subme=9 / psy=1 / psy_rd=1.00:0.15 / mixed_ref=1 / me_range=24 / chroma_me=1 / trellis=2 / 8x8dct=1 / cqm=0 / deadzone=21,11 / fast_pskip=1 / chroma_qp_offset=-3 / threads=25 / lookahead_threads=4 / sliced_threads=0 / nr=150 / decimate=1 / interlaced=0 / bluray_compat=0 / constrained_intra=0 / bframes=8 / b_pyramid=2 / b_adapt=2 / b_bias=0 / direct=3 / weightb=1 / open_gop=0 / weightp=2 / keyint=120 / keyint_min=61 / scenecut=0 / intra_refresh=0 / rc_lookahead=120 / rc=crf / mbtree=1 / crf=18.0 / qcomp=0.60 / qpmin=0 / qpmax=69 / qpstep=4 / vbv_maxrate=15000 / vbv_bufsize=31250 / crf_max=0.0 / nal_hrd=vbr / filler=0 / ip_ratio=1.40 / aq=3:1.00
Default : Yes
Forced : No
Color range : Limited
Color primaries : BT.709
Transfer characteristics : BT.709
Matrix coefficients : BT.709
Audio #1
ID : 2
Format : AC-3
Format/Info : Audio Coding 3
Mode extension : CM (complete main)
Format settings, Endianness : Big
Codec ID : A_AC3
Duration : 1h 43mn
Bit rate mode : Constant
Bit rate : 192 Kbps
Channel(s) : 2 channels
Channel positions : Front: L R
Sampling rate : 48.0 KHz
Frame rate : 31.250 fps (1536 spf)
Compression mode : Lossy
Stream size : 143 MiB (2%)
Title : MVO
Language : Russian
Default : Yes
Forced : No
Audio #2
ID : 3
Format : AC-3
Format/Info : Audio Coding 3
Mode extension : CM (complete main)
Format settings, Endianness : Big
Codec ID : A_AC3
Duration : 1h 43mn
Bit rate mode : Constant
Bit rate : 192 Kbps
Channel(s) : 2 channels
Channel positions : Front: L R
Sampling rate : 48.0 KHz
Frame rate : 31.250 fps (1536 spf)
Compression mode : Lossy
Stream size : 143 MiB (2%)
Title : Serbin
Language : Russian
Default : No
Forced : No
Audio #3
ID : 4
Format : E-AC-3
Format/Info : Audio Coding 3
Format settings, Endianness : Big
Codec ID : A_EAC3
Duration : 1h 43mn
Bit rate mode : Constant
Bit rate : 224 Kbps
Channel(s) : 2 channels
Channel positions : Front: L R
Sampling rate : 48.0 KHz
Frame rate : 187.500 fps (256 spf)
Compression mode : Lossy
Delay relative to video : 32ms
Stream size : 166 MiB (2%)
Language : English
Default : No
Forced : No
Text #1
ID : 5
Format : UTF-8
Codec ID : S_TEXT/UTF8
Codec ID/Info : UTF-8 Plain Text
Duration : 1h 38mn
Bit rate : 66 bps
Count of elements : 786
Stream size : 48.5 KiB (0%)
Language : Russian
Default : No
Forced : No
Text #2
ID : 6
Format : UTF-8
Codec ID : S_TEXT/UTF8
Codec ID/Info : UTF-8 Plain Text
Duration : 1h 38mn
Bit rate : 31 bps
Count of elements : 967
Stream size : 22.5 KiB (0%)
Language : English
Default : No
Forced : No

Скриншоты


_________________
Показать сообщения:    

Текущее время: Сегодня 12:12

Часовой пояс: GMT



Вы не можете начинать темы
Вы не можете отвечать на сообщения
Вы не можете редактировать свои сообщения
Вы не можете удалять свои сообщения
Вы не можете голосовать в опросах
Вы не можете прикреплять файлы к сообщениям
Вы не можете скачивать файлы