Важное объявление!
У Нас Все раздачи мультитрекерные, при нуле пиров в релизах, можете смело вставать на закачку!
 
Автор Сообщение

HUNTER

Стаж:
4 года 6 месяцев
Сообщений:
60910

Репутация: 101

[+] [-]
Вне форума [Профиль] [ЛС]

Плавание - первые уроки-

Год выпуска: 2004
Страна: Россия
Сайт производителя: отсутствуeт
Тематика: Спорт
Тип материала: обучающее видео-Продолжительность: 01:04:57
Автор: Александр Коваленко
В ролях: учащиеся ДЮСШ №2 - Максим Мезенцев, Игорь Евсюков, Александр Сизов, Сергей Рыжкевич, Станислав Копаев, Анастасия Быстрова, Татьяна Соколова, Юлия Дякина, Никита Соколов, Юлия Пройдова; тренер - Годзиев З. В.-Язык: Русский
Субтитры: отсутствуют-Описание: Компания "АГМА" совместно с Всероссийской федерацией плавания представляет Вашему вниманию учебный фильм "Плавание - первые уроки", снятый на базе Детско-юношеской спортивной школы №2 "Медведково". В фильме показано обучение плаванию начиная с нуля: привыкание к воде, комплекс упражнений на скольжение, постановка рук, работа ног и самое главное - обучение правильному дыханию. В фильме использована подводная съемка для лучшего восприятия движения рук и ног под водой. Четкость и простота в объяснениях тренера позволит Вам самостоятельно выполнять упражнения в открытых водоемах и привить первые навыки умения плавать своим детям.-Качество: DVDRip
Формат: AVI
Видео кодек: DivX
Аудио кодек: AC3
Видео: 704x512 (1.38:1), 25 fps, DivX Codec 5.02 build 487 ~1722 kbps avg, 0.19 bit/pixel
Аудио: 48 kHz, AC3 Dolby Digital, 2/0 (L,R) ch, ~192 kbps-

MediaInfo

Код: copyText_writeLink('this.parentNode.parentNode.nextSibling.nextSibling'); General
Complete name : E:\Обучение\plavanie_pervye_uroki.avi
Format : AVI
Format/Info : Audio Video Interleave
File size : 894 MiB
Duration : 1h 4mn
Overall bit rate : 1 924 Kbps
Writing application : Nandub v1.0rc2
Writing library : Nandub build 1853/release
Video
ID : 0
Format : MPEG-4 Visual
Format settings, BVOP : Yes
Format settings, QPel : No
Format settings, GMC : No warppoints
Format settings, Matrix : Default (H.263)
Codec ID : DX50
Codec ID/Hint : DivX 5
Duration : 1h 4mn
Bit rate : 1 723 Kbps
Width : 704 pixels
Height : 512 pixels
Display aspect ratio : 1.375
Frame rate : 25.000 fps
Color space : YUV
Chroma subsampling : 4:2:0
Bit depth : 8 bits
Scan type : Progressive
Compression mode : Lossy
Bits/(Pixel*Frame) : 0.191
Stream size : 800 MiB (90%)
Writing library : DivX 5.0.2 (UTC 2002-05-16)
Audio
ID : 1
Format : AC-3
Format/Info : Audio Coding 3
Mode extension : CM (complete main)
Format settings, Endianness : Big
Codec ID : 2000
Duration : 1h 4mn
Bit rate mode : Constant
Bit rate : 192 Kbps
Channel(s) : 2 channels
Channel positions : Front: L R
Sampling rate : 48.0 KHz
Bit depth : 16 bits
Compression mode : Lossy
Stream size : 89.2 MiB (10%)
Alignment : Split accross interleaves
Interleave, duration : 40 ms (1.00 video frame)
Interleave, preload duration : 500 ms
- -

_________________
Показать сообщения:    

Текущее время: Сегодня 15:00

Часовой пояс: GMT



Вы не можете начинать темы
Вы не можете отвечать на сообщения
Вы не можете редактировать свои сообщения
Вы не можете удалять свои сообщения
Вы не можете голосовать в опросах
Вы не можете прикреплять файлы к сообщениям
Вы не можете скачивать файлы
Наши партнеры: интернет магазин Ивановского трикотажа textilla.ru