Ивановский Торрент трекер
Яндекс.Погода
 

[Цитировать]
HUNTER

-Пиpаньи 3DD / Рiranha 3DD Год выпуска: 2012
Страна: США (Dimension Films, Radius TWC)
Жанр: Ужасы, Триллер, Комедия
Продолжительность: 01:22:39
Перевод: Дубляж (Лицензия)
Русские субтитры: нет
Режиссер: Джон Гулажер / John Gulager--Роли исполняли (дублировали):
Мэдди - Даниэль Панабэйкер
Барри - Мэтт Буш (Михаил Тихонов)
Чет - Дэвид Кокнер
Шелби - Катрина Боуден
Кайл - Крис Зилка (Иван Жарков)
Джош - Жан-Люк Билодо
Мистер Гудмен - Кристофер Ллойд
Клейтон - Гэри Бьюзи (Сергей Чихачев)
Большой Дейв - Адриан Мартинез
Тревис - Пол Джеймс
Эшли - Мэган Тэнди (Анастасия Нестеренко)
...................
Фэллон - Винг Реймз--Описание: Доисторические твари больше не будут ограничиваться поеданием туристов на озере, а проникнут через водопроводные и канализационные сети в бассейны и иные искусственные водоемы нового аквапарка под названием Wilderness Waters. Именно там и развернется основное действие.
Доп. информация: Прежде чем качать, обратите внимание на рейтинги! Также советую почитать отзывы где-нибудь (хотя бы на том же Кинопоиске).
Не допускать к просмотру несовершеннолетних! Очень много весьма "откровенных" сцен.

Знаете ли вы, что...

  • Миранда Косгров прослушивалась на роль Мэдди, которую в итоге получила Даниэль Панабэйкер.
  • Первый фильм в серии «Пираний», который полностью снят в 3D.
За видео спасибо z-man!
Премьера: 11 мая 2012 (23 августа 2012)
Бюджет: $20 000 000
Кассовые сборы: $5 076 216

Проверено на встроенном плейере ТВ Samsung UE-C7000--Качество: BDrip (by z-man)
Контейнер: MKV
Формат 3D: Half SideBySide / Горизонтальная анаморфная стереопара
Порядок ракурсов: левый ракурс первый
Видео кодек: x264
Аудио кодек: AC3-Видео: AVC / 23,976 fps / 1920х1080p / 14.7 Mbps
Аудио:
#1 - Русский / AC3 / 48 KHz / 5.1 ch / 384 Kbps (Лицензия)
#2 - Английский / AC3 / 48 KHz / 5.1 ch / 640 Kbps
Субтитры: Отсутствуют

MediaInfo

General
UniqueID : 219587093798995561597356396027983182331 (0xA532EF996D104B259F2F8A0A032039FB)
Complete name : F:\Downloads\Piranha3DD(3D)2012.halfSBS(z-man).mkv
Format : Matroska
File size : 9.24 GiB
Duration : 1h 22mn
Overall bit rate : 16.0 Mbps
Movie name : Piranha 3DD (3D) 2012 (by z-man)
Encoded date : UTC 2012-08-30 14:03:48
Writing application : mkvmerge v3.4.0 ('Rapunzel') сборка от May 15 2010 09:38:20
Writing library : libebml v0.8.0 + libmatroska v0.9.0
Video
ID : 1
Format : AVC
Format/Info : Advanced Video Codec
Format profile : High@L4.1
Format settings, CABAC : Yes
Format settings, ReFrames : 4 frames
Codec ID : V_MPEG4/ISO/AVC
Duration : 1h 22mn
Bit rate : 14.7 Mbps
Width : 1 920 pixels
Height : 1 080 pixels
Display aspect ratio : 16:9
Frame rate : 23.976 fps
Color space : YUV
Chroma subsampling : 4:2:0
Bit depth : 8 bits
Scan type : Progressive
Bits/(Pixel*Frame) : 0.295
Stream size : 8.46 GiB (92%)
Title : BDrip by z-man
Writing library : x264 core 125 r2208 d9d2288
Encoding settings : cabac=1 / ref=4 / deblock=1:-3:-3 / analyse=0x3:0x113 / me=umh / subme=7 / psy=1 / psy_rd=1.00:0.15 / mixed_ref=1 / me_range=16 / chroma_me=1 / trellis=1 / 8x8dct=1 / cqm=0 / deadzone=21,11 / fast_pskip=1 / chroma_qp_offset=-3 / threads=18 / lookahead_threads=3 / sliced_threads=0 / nr=0 / decimate=1 / interlaced=0 / bluray_compat=0 / constrained_intra=0 / bframes=3 / b_pyramid=2 / b_adapt=1 / b_bias=0 / direct=3 / weightb=1 / open_gop=0 / weightp=2 / keyint=250 / keyint_min=23 / scenecut=40 / intra_refresh=0 / rc_lookahead=40 / rc=crf / mbtree=1 / crf=19.0 / qcomp=0.60 / qpmin=10 / qpmax=69 / qpstep=4 / ip_ratio=1.40 / aq=1:1.00
Language : English
Audio #1
ID : 2
Format : AC-3
Format/Info : Audio Coding 3
Mode extension : CM (complete main)
Codec ID : A_AC3
Duration : 1h 22mn
Bit rate mode : Constant
Bit rate : 384 Kbps
Channel(s) : 6 channels
Channel positions : Front: L C R, Side: L R, LFE
Sampling rate : 48.0 KHz
Bit depth : 16 bits
Compression mode : Lossy
Stream size : 227 MiB (2%)
Title : Лицензия
Language : Russian
Audio #2
ID : 3
Format : AC-3
Format/Info : Audio Coding 3
Mode extension : CM (complete main)
Codec ID : A_AC3
Duration : 1h 22mn
Bit rate mode : Constant
Bit rate : 640 Kbps
Channel(s) : 6 channels
Channel positions : Front: L C R, Side: L R, LFE
Sampling rate : 48.0 KHz
Bit depth : 16 bits
Compression mode : Lossy
Stream size : 379 MiB (4%)
Title : Original
Language : English
Menu
00:00:00.000 : en:00:00:00.000
00:06:20.880 : en:00:06:20.880
00:11:47.874 : en:00:11:47.874
00:14:14.062 : en:00:14:14.062
00:18:44.332 : en:00:18:44.332
00:21:37.546 : en:00:21:37.546
00:25:05.045 : en:00:25:05.045
00:31:39.481 : en:00:31:39.481
00:36:03.870 : en:00:36:03.870
00:41:50.341 : en:00:41:50.341
00:45:10.124 : en:00:45:10.124
00:51:20.911 : en:00:51:20.911
00:57:03.253 : en:00:57:03.253
01:00:12.692 : en:01:00:12.692
01:05:28.424 : en:01:05:28.424
01:10:43.406 : en:01:10:43.406

Скриншоты

Для оценки качества 3Д - Анимированные скрины

Для оценки качества 3Д - Чёрно-белые скрины в анаглифе red/cyan

30.08.2012 - Релиз обновлён - прежние рус.аудио заменены на лицензию. Желающие, скачайте заново торрент-файл.
Показать сообщения:    

Текущее время: 19-Окт 21:09

Часовой пояс: UTC - 1


Вы не можете начинать темы
Вы не можете отвечать на сообщения
Вы не можете редактировать свои сообщения
Вы не можете удалять свои сообщения
Вы не можете голосовать в опросах
Вы не можете прикреплять файлы к сообщениям
Вы не можете скачивать файлы

!ВНИМАНИЕ!
Сайт не предоставляет электронные версии произведений, а занимается лишь коллекционированием и каталогизацией ссылок, присылаемых и публикуемых на форуме нашими читателями. Если вы являетесь правообладателем какого-либо представленного материала и не желаете, чтобы ссылка на него находилась в нашем каталоге, свяжитесь с нами, и мы незамедлительно удалим ее. Файлы для обмена на трекере предоставлены пользователями сайта, и администрация не несет ответственности за их содержание. Просьба не заливать файлы, защищенные авторскими правами, а также файлы нелегального содержания!