Важное объявление!
У Нас Все раздачи мультитрекерные, при нуле пиров в релизах, можете смело вставать на закачку!
 
Автор Сообщение

HUNTER

Стаж:
4 года 10 месяцев
Сообщений:
65570

Репутация: 101

[+] [-]
Вне форума [Профиль] [ЛС]

Пирожник / The Corndog Man
Страна: США
Студия: Corndog Productions, Doradel Pictures
Жанр: драма
Год выпуска: 1999
Продолжительность: 01:23:28
Перевод: Авторский (одноголосый закадровый) Сергей Кузнецов
Cубтитры: нет
Оригинальная аудиодорожка: английский
Режиссер: Эндрю Ши / Andrew Shea
В ролях: Ноубл Уиллингэм, Джим Холмс, Дэвид Стин, Кендалл МакНайт, Дара Хольц, Энди Долтрофф, Джефф Нэгл, Роберт Меллард, Джеймс Холмс-ст., Кевин Робертсон, Африка Брайан Сибрук
Описание: Бугервиль, Южная Каролина – рыбный городок, где вы обнаружите Эйса Баркера, местного торговца лодками, постоянно матерящегося и разглагольствующего ни о чем. Но вот, в городе появляется загадочный незнакомец с планом безжалостного издевательства. Задача незнакомца разыгрывать жестокие, самые мучительные шутки, чтобы свети Эйса с ума. Достаточно ли ему удовлетворить свою навязчивость, наблюдая за тем, как Эйс распадается на части?
Бонусы: интервью
Меню: статичное, озвученное, на английском языке
Kinopoisk
Сэмпл: http://multi-up.com/1005124
Тип релиза: DVD5
Контейнер: DVD-Video
Видео: NTSC 4:3 (720x480(0.463)) MPEG Video, 29,970 кадр/сек, 4800 Кбит/сек
Аудио: Russian (Dolby AC3, 2ch) 192 Кбит/сек, 48,0 КГц
Аудио 2: English (Dolby AC3, 6ch) 448 Кбит/сек, 48,0 КГц

Доп. информация

Издание artvideodvd

DVDInfo

Title:
Size: 3.68 Gb ( 3 855 848 KBytes ) - DVD-5
Enabled regions: 1, 2, 3, 4, 5, 6, 7, 8
VTS_01 :
Play Length: 00:00:13+00:00:14
Video: NTSC 4:3 (720x480) VBR
Audio:
English (Dolby AC3, 6 ch)
VTS_02 :
Play Length: 01:23:28
Video: NTSC 4:3 (720x480) VBR
Audio:
Russian (Dolby AC3, 2 ch)
English (Dolby AC3, 6 ch)
VTS_03 :
Play Length: 00:10:36
Video: NTSC 4:3 (720x480) VBR
Audio:
English (Dolby AC3, 6 ch)
Menu Video:
NTSC 4:3 (720x480) VBR
Menu Subtitles:
Not specified
Menu Russian Language Unit :
Root Menu
Angle menu
Chapter (PTT) Menu

MediaInfo

General
Complete name : D:\news\Пирожник\VIDEO_TS\VTS_02_1.VOB
Format : MPEG-PS
File size : 1 024 MiB
Duration : 25mn 47s
Overall bit rate : 5 549 Kbps
Video
ID : 224 (0xE0)
Format : MPEG Video
Format version : Version 2
Format profile : Main@Main
Format settings, BVOP : Yes
Format settings, Matrix : Default
Format settings, GOP : M=2, N=16
Duration : 25mn 47s
Bit rate mode : Constant
Bit rate : 4 800 Kbps
Width : 720 pixels
Height : 480 pixels
Display aspect ratio : 4:3
Frame rate : 29.970 fps
Standard : NTSC
Color space : YUV
Chroma subsampling : 4:2:0
Bit depth : 8 bits
Scan type : Interlaced
Scan order : Top Field First
Bits/(Pixel*Frame) : 0.463
Stream size : 885 MiB (86%)
Audio #1
ID : 128 (0x80)
Format : AC-3
Format/Info : Audio Coding 3
Mode extension : CM (complete main)
Duration : 25mn 47s
Bit rate mode : Constant
Bit rate : 192 Kbps
Channel(s) : 2 channels
Channel positions : Front: L R
Sampling rate : 48.0 KHz
Video delay : -33ms
Stream size : 35.4 MiB (3%)
Audio #2
ID : 129 (0x81)
Format : AC-3
Format/Info : Audio Coding 3
Mode extension : CM (complete main)
Duration : 25mn 47s
Bit rate mode : Constant
Bit rate : 448 Kbps
Channel(s) : 6 channels
Channel positions : Front: L C R, Side: L R, LFE
Sampling rate : 48.0 KHz
Video delay : -33ms
Stream size : 82.6 MiB (8%)
Menu

Скриншоты меню

Скриншоты доп. материалов


_________________
Показать сообщения:    

Текущее время: Сегодня 21:30

Часовой пояс: GMT



Вы не можете начинать темы
Вы не можете отвечать на сообщения
Вы не можете редактировать свои сообщения
Вы не можете удалять свои сообщения
Вы не можете голосовать в опросах
Вы не можете прикреплять файлы к сообщениям
Вы не можете скачивать файлы