Важное объявление!
У Нас Все раздачи мультитрекерные, при нуле пиров в релизах, можете смело вставать на закачку!
 
Автор Сообщение

HUNTER

Стаж:
4 года 8 месяцев
Сообщений:
62050

Репутация: 101

[+] [-]
Вне форума [Профиль] [ЛС]

Пираты Тортуги / Pirates of Tortuga
-Страна: США
Студия: CinemaScope, Clover Productions
Жанр: приключения
Год выпуска: 1961
Продолжительность: 01:36:56-Перевод: Одноголосый закадровый [Андрей Григорьев]
Cубтитры: русские, английские
Оригинальная аудиодорожка: английский-Режиссер: Роберт Д. Уэбб / Robert D. Webb-В ролях: Кен Скотт, Летиция Роман, Дейв Кинг, Джон Ричардсон, Рэфер Джонсон, Роберт Стивенс, Рэйчел Стефенс, Стэнли Адамс, Эдгар Барье, Джеймс Форрест.-Описание: После продолжительного плавания, капитан Барт Пэкстон возвращается в Англию, где получает новое задание от английского адмиралтейства - отправиться в район Карибского моря, где бесчинствует грозный пират Генри Морган. Капитан Барт должен присоединиться к флотилии Моргана, и, впоследствии, захватить, или уничтожить главаря пиратов. Однако, хитрый Морган узнает о намерениях Барта и готовится к приему. Между ними завязывается поединок не на жизнь, а на смерть...-Сэмпл | Kinopoisk | Imdb-Тип релиза: BDRip 720p [BDRemux]
Контейнер: MKV-Видео: AVC High@L4.1 | 1280x542 | 5235 kbps | 23.976 fps
Аудио 1: Russian AC-3 | 2 ch | 48 kHz | 192 kbps [Андрей Григорьев]
Аудио 2: English AC-3 | 2 ch | 48 kHz | 640 kbps [Original]

MediaInfo

General
Unique ID : 191365153319530168939563988183048021691 (0x8FF7968134D905C1BF5C9A236AE466BB)
Complete name : I:\H\Pirates of Tortuga.1961.BDRip.720p.mkv
Format : Matroska
Format version : Version 4 / Version 2
File size : 4.29 GiB
Duration : 1h 36mn
Overall bit rate : 6 331 Kbps
Movie name : _@dvokat_
Encoded date : UTC 2015-11-05 05:42:15
Writing application : mkvmerge v8.5.1 ('Where you lead I will follow') 32bit
Writing library : libebml v1.3.3 + libmatroska v1.4.4
DURATION : 01:36:56.192000000
NUMBER_OF_FRAMES : 181756
NUMBER_OF_BYTES : 465295360
_STATISTICS_WRITING_APP : mkvmerge v8.5.1 ('Where you lead I will follow') 32bit
_STATISTICS_WRITING_DATE_UTC : 2015-11-05 05:42:15
_STATISTICS_TAGS : BPS DURATION NUMBER_OF_FRAMES NUMBER_OF_BYTES
Video
ID : 1
Format : AVC
Format/Info : Advanced Video Codec
Format profile : High@L4.1
Format settings, CABAC : Yes
Format settings, ReFrames : 10 frames
Codec ID : V_MPEG4/ISO/AVC
Duration : 1h 36mn
Bit rate : 5 496 Kbps
Width : 1 280 pixels
Height : 542 pixels
Display aspect ratio : 2.35:1
Frame rate mode : Constant
Frame rate : 23.976 fps
Color space : YUV
Chroma subsampling : 4:2:0
Bit depth : 8 bits
Scan type : Progressive
Bits/(Pixel*Frame) : 0.330
Stream size : 3.64 GiB (85%)
Writing library : x264 core 146 r2538 121396c
Encoding settings : cabac=1 / ref=10 / deblock=1:-3:-3 / analyse=0x3:0x133 / me=umh / subme=10 / psy=1 / psy_rd=1.00:0.10 / mixed_ref=1 / me_range=48 / chroma_me=1 / trellis=2 / 8x8dct=1 / cqm=0 / deadzone=21,11 / fast_pskip=0 / chroma_qp_offset=-3 / threads=6 / lookahead_threads=1 / sliced_threads=0 / nr=0 / decimate=1 / interlaced=0 / bluray_compat=0 / constrained_intra=0 / bframes=8 / b_pyramid=2 / b_adapt=2 / b_bias=0 / direct=0 / weightb=1 / open_gop=0 / weightp=2 / keyint=240 / keyint_min=22 / scenecut=40 / intra_refresh=0 / rc_lookahead=40 / rc=2pass / mbtree=1 / bitrate=5496 / ratetol=1.0 / qcomp=0.60 / qpmin=10 / qpmax=51 / qpstep=4 / cplxblur=20.0 / qblur=0.5 / vbv_maxrate=50000 / vbv_bufsize=40000 / nal_hrd=none / filler=0 / ip_ratio=1.40 / aq=1:1.00
Language : English
Default : Yes
Forced : No
Audio #1
ID : 2
Format : AC-3
Format/Info : Audio Coding 3
Mode extension : CM (complete main)
Format settings, Endianness : Big
Codec ID : A_AC3
Duration : 1h 36mn
Bit rate mode : Constant
Bit rate : 192 Kbps
Channel(s) : 2 channels
Channel positions : Front: L R
Sampling rate : 48.0 KHz
Compression mode : Lossy
Stream size : 133 MiB (3%)
Title : Андрей Григорьев
Language : Russian
Default : Yes
Forced : No
Audio #2
ID : 3
Format : AC-3
Format/Info : Audio Coding 3
Mode extension : CM (complete main)
Format settings, Endianness : Big
Codec ID : A_AC3
Duration : 1h 36mn
Bit rate mode : Constant
Bit rate : 640 Kbps
Channel(s) : 2 channels
Channel positions : Front: L R
Sampling rate : 48.0 KHz
Compression mode : Lossy
Stream size : 444 MiB (10%)
Title : Original
Language : English
Default : No
Forced : No
Text #1
ID : 4
Format : UTF-8
Codec ID : S_TEXT/UTF8
Codec ID/Info : UTF-8 Plain Text
Title : Rus
Language : Russian
Default : No
Forced : No
Text #2
ID : 5
Format : UTF-8
Codec ID : S_TEXT/UTF8
Codec ID/Info : UTF-8 Plain Text
Title : Eng
Language : English
Default : Yes
Forced : No

Сравнение

BDRip 720p / BDRemux 1080p


Скриншоты



_________________
Показать сообщения:    

Текущее время: Сегодня 08:57

Часовой пояс: GMT



Вы не можете начинать темы
Вы не можете отвечать на сообщения
Вы не можете редактировать свои сообщения
Вы не можете удалять свои сообщения
Вы не можете голосовать в опросах
Вы не можете прикреплять файлы к сообщениям
Вы не можете скачивать файлы
Наши партнеры: интернет магазин Ивановского трикотажа textilla.ru