Важное объявление!
У Нас Все раздачи мультитрекерные, при нуле пиров в релизах, можете смело вставать на закачку!
Статистика раздачи
Размер:     |    Зарегистрирован:     |    Скачан:     |   
Нет
 
     
 
 
Автор Сообщение

HUNTER

Стаж:
5 лет
Сообщений:
67958

Репутация: 101

[+] [-]
Вне форума [Профиль] [ЛС]

Пиратские забавы: как правильно создать DVD-Rip ---Год выпуска: 2008
Жанр: видеоурок
Производитель: журнал Хакер
Автор: Крис Касперски
Продолжительность: 00:08:48.327 (15834 frames)
Язык: русский--Описание:
Видео к циклу статей "Пиратские забавы - как правильно создать DVD-Rip своими руками". Видеоролик будет отличным подспорьем для изучения материала. Теперь вы можете не только прочитать (описание прилагается), но и посмотреть, как создаются правильные DVD-RIP’ы.--Качество: DVDRip
Формат: AVI
Видео кодек: DivX 5
Аудио кодек: MPCM
Видео: 1280x1024 (1.25:1), 29.970 fps, DivX Codec 5.1 ~3255 kbps avg, 0.08 bit/pixel
Аудио: 48 kHz, Microsoft PCM, 2 ch, ~1536.00 kbps avg-- -- --

MI

Код: copyText_writeLink('this.parentNode.parentNode.nextSibling.nextSibling'); General
Format : AVI
Format/Info : Audio Video Interleave
File size : 303 MiB
Duration : 8mn 48s
Overall bit rate : 4 804 Kbps
Writing library : VirtualDub build 18121/release
Video #0
ID : 0
Format : MPEG-4 Visual
Format settings, BVOP : Yes
Format settings, QPel : No
Format settings, GMC : No warppoints
Format settings, Matrix : Default (H.263)
Muxing mode : Packed bitstream
Codec ID : DX50
Codec ID/Hint : DivX 5
Duration : 8mn 48s
Bit rate : 3 256 Kbps
Width : 1 280 pixels
Height : 1 024 pixels
Display aspect ratio : 5:4
Frame rate : 29.970 fps
Resolution : 24 bits
Colorimetry : 4:2:0
Scan type : Progressive
Bits/(Pixel*Frame) : 0.083
Stream size : 205 MiB (68%)
Writing library : DivX 5.1.0 (UTC 2003-09-02)
Audio
Format : PCM
Format settings, Endianness : Little
Format settings, Sign : Unsigned
Codec ID : 1
Codec ID/Hint : Microsoft
Duration : 8mn 48s
Bit rate mode : Constant
Bit rate : 1 536 Kbps
Channel(s) : 2 channels
Sampling rate : 48.0 KHz
Resolution : 16 bits
Stream size : 96.7 MiB (32%)
Interleave, duration : 33 ms (1.00 video frame)
Interleave, preload duration : 500 ms
--

_________________
Показать сообщения:    

Текущее время: Сегодня 22:57

Часовой пояс: GMT



Вы не можете начинать темы
Вы не можете отвечать на сообщения
Вы не можете редактировать свои сообщения
Вы не можете удалять свои сообщения
Вы не можете голосовать в опросах
Вы не можете прикреплять файлы к сообщениям
Вы не можете скачивать файлы