Важное объявление!
У Нас Все раздачи мультитрекерные, при нуле пиров в релизах, можете смело вставать на закачку!
Статистика раздачи
Размер:     |    Зарегистрирован:     |    Скачан:     |   
Нет
 
     
 
 
Автор Сообщение

HUNTER

Стаж:
5 лет
Сообщений:
67992

Репутация: 101

[+] [-]
Вне форума [Профиль] [ЛС]

Пиноккио / Pinocchio
Страна: США
Жанр: полнометражный мультфильм, детский, семейный, фантастика, приключения
Продолжительность: 01:24:07
Год выпуска: 1940
Перевод #1: Профессиональный (многоголосый закадровый) New Dream Media
Перевод #2: Профессиональный (двухголосый закадровый) ИДДК
Субтитры: отсутствуют
Оригинальная аудиодорожка: нет
Режиссёры: Хэмильтон Ласки / Hamilton Luske, Бен Шарпстин / Ben Sharpsteen
Актёры: Мел Бланк, Дон Броди, Уолтер Кэтлетт, Мэрион Дарлингтон, Фрэнки Дэрроу, Клифф Эдвардс, Дики Джонс, Чарльз Джуделс, Джек Мерсер, Кристиан Раб, Эвелин Венейбл и др.
Аннотация: Кукольник Джеппетто заканчивает новую марионетку и, увидев падающую звезду, загадывает желание. Он хочет, чтобы кукла по имени Пиноккио превратилась в мальчика. Волшебница-фея слышит просьбу мастера и выполняет её. Пиноккио обретает жизнь и разум, и теперь деревянный мальчик должен научиться быть достойным человеком, чтобы превратиться в ребёнка из плоти и крови.

Качество: DVDRip [Пиноккио / Pinocchio (Хэмильтон Ласки / Hamilton Luske, Бен Шарпстин / Ben Sharpsteen) [1940, полнометражный мультфильм, детский, семейный, фантастика, приключения, DVD5] DVO (ИДДК) + Original Eng]
Формат: AVI
Video: 720x544 (1.32:1), 25 fps, XviD build 65 ~1576 kbps avg, 0.16 bit/pixel
Audio #1: 48 kHz, AC3 Dolby Digital, 3/2 (L,C,R,l,r) + LFE ch, ~448 kbps New Dream Media [Swend]
Audio #2: 48 kHz, AC3 Dolby Digital, 3/2 (L,C,R,l,r) + LFE ch, ~448 kbps ИДДК

Подробные технические данные

AviInfo
File: Pinocchio_1940_DVDRip_[rutracker.org].aviFilesize: 1496.41 Mb ( 1 569 095 680 bytes )Play length: 01:24:07.799 (126195 frames)Subtitles: Not PresentVideo: 720x544 (1.32:1), 25 fps, XviD build 65 ~1576 kbps avg, 0.16 bit/pixelAudio #1: 48 kHz, AC3 Dolby Digital, 3/2 (L,C,R,l,r) + LFE ch, ~448 kbpsAudio #2: 48 kHz, AC3 Dolby Digital, 3/2 (L,C,R,l,r) + LFE ch, ~448 kbps

MediaInfo

ОбщееПолное имя : S:\Pinocchio_1940_DVDRip_[rutracker.org].aviФормат : AVIФормат/Информация : Audio Video InterleaveРазмер файла : 1,46 ГбайтПродолжительность : 1 ч. 24 м.Общий поток : 2487 Кбит/секПрограмма кодирования : VirtualDubModRus 1.5.10.2 (build 2542/release)Библиотека кодирования : VirtualDubMod build 2542/release
ВидеоИдентификатор : 0Формат : MPEG-4 VisualПрофиль формата : Advanced Simple@L5Параметр BVOP формата : 1Параметр QPel формата : НетПараметр GMC формата : Без точки переходаПараметр матрицы формата : Default (MPEG)Идентификатор кодека : DX50Идентификатор кодека/Подсказка : DivX 5Продолжительность : 1 ч. 24 м.Битрейт : 1578 Кбит/секШирина : 720 пикселейВысота : 544 пикселяСоотношение сторон : 4:3Частота кадров : 25,000 кадров/секЦветовое пространство : YUVСубдискретизация насыщенности : 4:2:0Битовая глубина : 8 битТип развёртки : ПрогрессивнаяМетод сжатия : С потерямиБит/(Пиксели*Кадры) : 0.161Размер потока : 949 Мбайт (63%)Библиотека кодирования : XviD 65
Аудио #1Идентификатор : 1Формат : AC-3Формат/Информация : Audio Coding 3Расширение режима : CM (complete main)Параметр Endianness формата : BigИдентификатор кодека : 2000Продолжительность : 1 ч. 24 м.Вид битрейта : ПостоянныйБитрейт : 448 Кбит/секКаналы : 6 каналовРасположение каналов : Front: L C R, Side: L R, LFEЧастота : 48,0 КГцБитовая глубина : 16 битМетод сжатия : С потерямиЗадержка видео : 28 мс.Размер потока : 269 Мбайт (18%)Выравнивание : Разделение по промежуткамПродолжительность промежутка : 40 мс. (1,00 видеокадр)Время предзагрузки промежутка : 500 мс.
Аудио #2Идентификатор : 2Формат : AC-3Формат/Информация : Audio Coding 3Расширение режима : CM (complete main)Параметр Endianness формата : BigИдентификатор кодека : 2000Продолжительность : 1 ч. 24 м.Вид битрейта : ПостоянныйБитрейт : 448 Кбит/секКаналы : 6 каналовРасположение каналов : Front: L C R, Side: L R, LFEЧастота : 48,0 КГцБитовая глубина : 16 битМетод сжатия : С потерямиЗадержка видео : 200 мс.Размер потока : 269 Мбайт (18%)Выравнивание : Разделение по промежуткамПродолжительность промежутка : 40 мс. (1,00 видеокадр)Время предзагрузки промежутка : 500 мс.
Время раздачи - по возможности.

_________________
Показать сообщения:    

Текущее время: Сегодня 10:43

Часовой пояс: GMT



Вы не можете начинать темы
Вы не можете отвечать на сообщения
Вы не можете редактировать свои сообщения
Вы не можете удалять свои сообщения
Вы не можете голосовать в опросах
Вы не можете прикреплять файлы к сообщениям
Вы не можете скачивать файлы