Важное объявление!
У Нас Все раздачи мультитрекерные, при нуле пиров в релизах, можете смело вставать на закачку!
 
Автор Сообщение

HUNTER

Стаж:
4 года 8 месяцев
Сообщений:
62044

Репутация: 101

[+] [-]
Вне форума [Профиль] [ЛС]

Пиноккио / Pinocchio
Страна: США
Жанр: детский, семейный
Продолжительность: 01:24:08
Год выпуска: 1940
Перевод: Одноголосый закадровый - переводу уже более 25!! лет
Режиссёр: Хэмилтон Ласки / Hamilton Luske, Бен Шарпстин / Ben Sharpsteen
Рецензия Михаила Иванова: Бессмертная экранизация сказки Карло Коллоди о мальчике-кукле, вырезанном из куска дерева. Мы знаем эту историю как приключения Буратино, и рассказывать сюжет не имеет смысла, хотя разница, конечно, есть. Великолепную анимацию сопровождают прекрасные музыка и песни, удостоенные по праву "Оскаров". Есть несколько переводов, в том числе и мой.
ИЗ СЕРИИ ЛЮБИМЫЕ ПЕРЕВОДЫ
Качество: DVDRip >> Семпл
Формат: AVI
Видео: 704x528 (1.33:1), 25 fps, XviD build 50 ~1739 kbps avg, 0.19 bit/pixel - исходник от Genry13
Аудио 1: 48 kHz, AC3 Dolby Digital, 2/0 (L,R) ch, ~224 kbps - перевод неизвестного оцифрован и синхронизирован мной с коллекционной VHS
Аудио 2: 48 kHz, AC3 Dolby Digital, 3/2 (L,C,R,l,r) + LFE ch, ~448 kbps - english
Субтитры: "отсутствуют"

Подробные технические данные

Формат : AVIФормат/Информация : Audio Video InterleaveРазмер файла : 1,43 ГбайтПродолжительность : 1 ч. 24 м.Общий поток : 2426 Кбит/секНазвание фильма : Pinocchio (1940)Программа кодирования : VirtualDubMod 1.5.10.3 | www.virtualdub-fr.org || (build 2550/release)Библиотека кодирования : VirtualDubMod build 2550/releaseПравообладатель : sasikainen
ВидеоИдентификатор : 0Формат : MPEG-4 VisualПрофиль формата : Advanced Simple@L5Параметр BVOP формата : 2Параметр QPel формата : НетПараметр GMC формата : Без точки переходаПараметр матрицы формата : Default (MPEG)Идентификатор кодека : XVIDИдентификатор кодека/Подсказка : XviDПродолжительность : 1 ч. 24 м.Битрейт : 1740 Кбит/секШирина : 704 пикселяВысота : 528 пикселейСоотношение сторон : 4:3Частота кадров : 25,000 кадров/секЦветовое пространство : YUVСубдискретизация насыщенности : 4:2:0Битовая глубина : 8 битТип развёртки : ПрогрессивнаяМетод сжатия : С потерямиБит/(Пиксели*Кадры) : 0.187Размер потока : 1,02 Гбайт (72%)Библиотека кодирования : XviD 1.2.1 (UTC 2008-12-04)
Аудио #1Идентификатор : 1Формат : AC-3Формат/Информация : Audio Coding 3Расширение режима : CM (complete main)Параметр Endianness формата : BigИдентификатор кодека : 2000Продолжительность : 1 ч. 24 м.Вид битрейта : ПостоянныйБитрейт : 224 Кбит/секКаналы : 2 каналаРасположение каналов : Front: L RЧастота : 48,0 КГцБитовая глубина : 16 битМетод сжатия : С потерямиРазмер потока : 135 Мбайт (9%)Выравнивание : Разделение по промежуткамПродолжительность промежутка : 40 мс. (1,00 видеокадр)Время предзагрузки промежутка : 500 мс.Заголовок : russian
Аудио #2Идентификатор : 2Формат : AC-3Формат/Информация : Audio Coding 3Расширение режима : CM (complete main)Параметр Endianness формата : BigИдентификатор кодека : 2000Продолжительность : 1 ч. 24 м.Вид битрейта : ПостоянныйБитрейт : 448 Кбит/секКаналы : 6 каналовРасположение каналов : Front: L C R, Side: L R, LFEЧастота : 48,0 КГцБитовая глубина : 16 битМетод сжатия : С потерямиРазмер потока : 270 Мбайт (18%)Выравнивание : Разделение по промежуткамПродолжительность промежутка : 40 мс. (1,00 видеокадр)Время предзагрузки промежутка : 500 мс.Заголовок : english

Скриншоты


_________________
Показать сообщения:    

Текущее время: Сегодня 23:36

Часовой пояс: GMT



Вы не можете начинать темы
Вы не можете отвечать на сообщения
Вы не можете редактировать свои сообщения
Вы не можете удалять свои сообщения
Вы не можете голосовать в опросах
Вы не можете прикреплять файлы к сообщениям
Вы не можете скачивать файлы
Наши партнеры: интернет магазин Ивановского трикотажа textilla.ru