Ивановский Торрент трекер
Яндекс.Погода
 

[Цитировать]
HUNTER

Пиноккио / Pinocchio
Страна: США, Япония
Жанр: Мультфильм, приключения, сказка
Продолжительность: 00:48:02
Год выпуска: 1992
Перевод: Профессиональный (двухголосый закадровый)
Русские субтитры: нет
Режиссёр: Диана Эшкенази / Diane Eskenazi-Описание: Экранизация одноименной известной сказки Карло Коллоди.
Кукольных дел мастер Джепетто, поскольку его игрушки никто не покупает, решает сделать куклу для себя. Но случилось так, что кукла ожила, благодаря магической искорке, сбежавшей из дома Голубой Феи. Однако Пиноккио предстоит пройти еще не мало приключений. Ему нужно хорошо учиться и не лгать, чтобы сбылась его заветная мечта - стать настоящим мальчиком.
-Доп. материалы: отсутствуют
Качество: DVD5 (Custom)
Формат: DVD-video
Видео: MPEG-2 PAL, 720x576, 25fps, ~7500 Kb/s
Аудио 1: AC3, 48khz, 2ch, 192 kb/s Русский
Аудио 2: AC3, 48khz, 2ch, 192 kb/s English
Субтитры: Румынские
Релиз:

DVDInfo

Title: Pinocchio 1992 DVD5Size: 2.80 Gb ( 2 933 706,00 KBytes ) - DVD-5Enabled regions: 1, 2, 3, 4, 5, 6, 7, 8
VTS_01 : Play Length: 00:48:02 Video: PAL 4:3 (720x576) VBR Audio: Russian (Dolby AC3, 2 ch) English (Dolby AC3, 2 ch) Subtitles: Romanian
VTS_02 : Play Length: 00:00:00 Video: PAL 4:3 (720x576) VBR
* Menus Information *
VIDEO_TS MenuVideo: NTSC 4:3 (720x480) VBR Auto Pan&Scan, Auto LetterboxedEnglish Language Unit : Title Menu
VTS_01 MenuVideo: PAL 4:3 (720x576) VBREnglish Language Unit : Root Menu
VTS_02 MenuVideo: PAL 4:3 (720x576) VBREnglish Language Unit : Root Menu

MediaInfo

ОбщееПолное имя : E:\MULTFILMS\Pinocchio 1992 DVD5\VTS_01_1.VOBФормат : MPEG-PSРазмер файла : 1024 МбайтПродолжительность : 17 м.Режим общего битрейта : ПеременныйОбщий поток : 8330 Кбит/сек
ВидеоИдентификатор : 224 (0xE0)Формат : MPEG VideoВерсия формата : Version 2Профиль формата : Main@MainПараметр BVOP формата : ДаПараметр матрицы формата : ВыборочнаяПараметр GOP формата : M=3, N=12Продолжительность : 17 м.Вид битрейта : ПеременныйБитрейт : 7780 Кбит/секМаксимальный битрейт : 8000 Кбит/секШирина : 720 пикселейВысота : 576 пикселейСоотношение сторон : 4:3Частота кадров : 25,000 кадров/секСтандарт вещания : PALЦветовое пространство : YUVСубдискретизация насыщенности : 4:2:0Битовая глубина : 8 битТип развёртки : ЧересстрочнаяПорядок развёртки : Нижнее поле первоеМетод сжатия : С потерямиБит/(Пиксели*Кадры) : 0.750Временной код первого кадра : 01:00:00:00Оригинал временного кода : Group of pictures headerРазмер потока : 956 Мбайт (93%)Основные цвета : BT.601 PALХарактеристики трансфера : BT.470 System B, BT.470 System GКоэффициенты матрицы : BT.601
Аудио #1Идентификатор : 189 (0xBD)-128 (0x80)Формат : AC-3Формат/Информация : Audio Coding 3Расширение режима : CM (complete main)Параметр Endianness формата : BigРежим смешивания : DVD-VideoПродолжительность : 17 м.Вид битрейта : ПостоянныйБитрейт : 192 Кбит/секКаналы : 2 каналаРасположение каналов : Front: L RЧастота : 48,0 КГцБитовая глубина : 16 битМетод сжатия : С потерямиРазмер потока : 23,6 Мбайт (2%)
Аудио #2Идентификатор : 189 (0xBD)-129 (0x81)Формат : AC-3Формат/Информация : Audio Coding 3Расширение режима : CM (complete main)Параметр Endianness формата : BigРежим смешивания : DVD-VideoПродолжительность : 17 м.Вид битрейта : ПостоянныйБитрейт : 192 Кбит/секКаналы : 2 каналаРасположение каналов : Front: L RЧастота : 48,0 КГцБитовая глубина : 16 битМетод сжатия : С потерямиРазмер потока : 23,6 Мбайт (2%)
ТекстИдентификатор : 189 (0xBD)-32 (0x20)Формат : RLEФормат/Информация : Run-length encodingРежим смешивания : DVD-VideoЗадержка видео : 1 с. 720 мс.

Скриншоты меню

Скриншоты


Информация по сборке

Диск собран из румынского DVD, румынская аудиодорожка заменена на русскую.
Используемый софт:
BeSweet+BeLight (Распаковка звука в формат wav)
Adobe Audition (Синхронизация аудио)
Minnetonka Audio (Конвертация звука в формат Dolby AC3)
PgcDemux (Разборка диска)
MuxMan (Сборка диска)
Adobe Photoshop (Редактирование пунктов меню)
DVDSubEdit (Редактирование подсветки кнопок меню)
DVDRemakePro (Реавторинг DVD)


Показать сообщения:    

Текущее время: 13-Дек 09:28

Часовой пояс: UTC ± 0


Вы не можете начинать темы
Вы не можете отвечать на сообщения
Вы не можете редактировать свои сообщения
Вы не можете удалять свои сообщения
Вы не можете голосовать в опросах
Вы не можете прикреплять файлы к сообщениям
Вы не можете скачивать файлы

!ВНИМАНИЕ!
Сайт не предоставляет электронные версии произведений, а занимается лишь коллекционированием и каталогизацией ссылок, присылаемых и публикуемых на форуме нашими читателями. Если вы являетесь правообладателем какого-либо представленного материала и не желаете, чтобы ссылка на него находилась в нашем каталоге, свяжитесь с нами, и мы незамедлительно удалим ее. Файлы для обмена на трекере предоставлены пользователями сайта, и администрация не несет ответственности за их содержание. Просьба не заливать файлы, защищенные авторскими правами, а также файлы нелегального содержания!