Важное объявление!
У Нас Все раздачи мультитрекерные, при нуле пиров в релизах, можете смело вставать на закачку!
Статистика раздачи
Размер:     |    Зарегистрирован:     |    Скачан:     |   
Нет
 
     
 
 
Автор Сообщение

HUNTER

Стаж:
5 лет
Сообщений:
67968

Репутация: 101

[+] [-]
Вне форума [Профиль] [ЛС]

Пинки / Pinky-
Год выпуска: 1949
Страна: США
Жанр: драма
Продолжительность: 01:41:55
Перевод: Профессиональный (многоголосый закадровый) ТРК «Петербург – 5-й канал»
Оригинальная аудиодорожка: Английская
Cубтитры: Английские (полные, для слабослышащих)-Режиссер: Элиа Казан / Elia Kazan
В ролях: Джинни Крэйн, Этель Бэрримор, Этель Уотерс, Нина Мэй МакКинни, Уильям Ландигэн, Эвелин Варден, Фредерик О'Нил, Кенни Уошингтон, Бэйзил Ройсдэйл, Грифф Барнетт-Описание:
Молодая медсестра Патриция Джонсон - "пинки": так темнокожее население Америки называет афроамериканцев, которых из-за светлого цвета кожи можно принять за белых. Патриция возвращается на юг после обучения на курсах медсестер на севере страны. Она говорит своей бабушке, что там ее все принимали за белую, и она влюбилась в белого врача, которые ничего не знает об ее происхождении. Патриция полна решимости вновь вернуться на север. Бабушка уговаривает ее остаться дома и ухаживать за больной белой женщиной, миссис Эм. Патриция поддается на бабушкины уговоры и берет всю заботу о миссис Эм на себя...- | | Сэмпл-Качество: BDRemux 1080p (Pinky 1949 1080p Blu-ray AVC DTS-HD MA 2.0, thx buchanan)
Контейнер: MKV
Видео: 1920x1080 (1.37:1), 23.976 fps, 27335 kbps
Аудио 1: Русский AC3 2.0, 48 kHz, 192 kbps — Петербург 5 канал
Аудио 2: Английский DTS-HD MA 2.0, 48 kHz, 1815 kbps, 24-bit (DTS Core: 2.0, 48 kHz, 1509 kbps, 24-bit)
Аудио 3: Английский AC3 2.0, 48 kHz, 224 kbps — Комментарии
Формат субтитров: softsub (SRT)

Скриншоты


MI

General
Unique ID : 192067966722552072068374159460606567708 (0x907EF1E17BBF2881B61A1D20165E651C)
Complete name : Pinky.1949.1080p.Remux.mkv
Format : Matroska
Format version : Version 2
File size : 21.0 GiB
Duration : 1h 41mn
Overall bit rate mode : Variable
Overall bit rate : 29.6 Mbps
Movie name : Pinky / Пинки (1949) – RuTracker
Encoded date : UTC 2014-02-03 21:34:57
Writing application : mkvmerge v6.1.0 ('Old Devil') built on Mar 2 2013 14:32:37
Writing library : libebml v1.3.0 + libmatroska v1.4.0
Attachment : Yes
Video
ID : 1
Format : AVC
Format/Info : Advanced Video Codec
Format profile : High@L4.1
Format settings, CABAC : Yes
Format settings, ReFrames : 4 frames
Codec ID : V_MPEG4/ISO/AVC
Duration : 1h 41mn
Bit rate mode : Variable
Maximum bit rate : 39.0 Mbps
Width : 1 920 pixels
Height : 1 080 pixels
Display aspect ratio : 16:9
Frame rate mode : Constant
Frame rate : 23.976 fps
Color space : YUV
Chroma subsampling : 4:2:0
Bit depth : 8 bits
Scan type : Progressive
Title : Pinky 1949 1080p Blu-ray AVC DTS-HD MA 2.0
Language : English
Default : Yes
Forced : No
Color primaries : BT.709
Transfer characteristics : BT.709
Matrix coefficients : BT.709
Audio #1
ID : 2
Format : AC-3
Format/Info : Audio Coding 3
Mode extension : CM (complete main)
Format settings, Endianness : Big
Codec ID : A_AC3
Duration : 1h 41mn
Bit rate mode : Constant
Bit rate : 192 Kbps
Channel(s) : 2 channels
Channel positions : Front: L R
Sampling rate : 48.0 KHz
Bit depth : 16 bits
Compression mode : Lossy
Stream size : 140 MiB (1%)
Title : MVO – Петербург 5-й канал
Language : Russian
Default : Yes
Forced : No
Audio #2
ID : 3
Format : DTS
Format/Info : Digital Theater Systems
Format profile : MA / Core
Mode : 16
Format settings, Endianness : Big
Codec ID : A_DTS
Duration : 1h 41mn
Bit rate mode : Variable
Bit rate : Unknown / 1 509 Kbps
Channel(s) : 2 channels
Channel positions : Front: L R
Sampling rate : 48.0 KHz
Bit depth : 24 bits
Compression mode : Lossless / Lossy
Title : Original
Language : English
Default : No
Forced : No
Audio #3
ID : 4
Format : AC-3
Format/Info : Audio Coding 3
Mode extension : CM (complete main)
Format settings, Endianness : Big
Codec ID : A_AC3
Duration : 1h 41mn
Bit rate mode : Constant
Bit rate : 224 Kbps
Channel(s) : 2 channels
Channel positions : Front: L R
Sampling rate : 48.0 KHz
Bit depth : 16 bits
Compression mode : Lossy
Stream size : 163 MiB (1%)
Title : Commentary by film scholar Kenneth Geist
Language : English
Default : No
Forced : No
Text #1
ID : 5
Format : UTF-8
Codec ID : S_TEXT/UTF8
Codec ID/Info : UTF-8 Plain Text
Language : English
Default : No
Forced : No
Text #2
ID : 6
Format : UTF-8
Codec ID : S_TEXT/UTF8
Codec ID/Info : UTF-8 Plain Text
Title : SDH
Language : English
Default : No
Forced : No
Text #3
ID : 7
Format : PGS
Muxing mode : zlib
Codec ID : S_HDMV/PGS
Codec ID/Info : The same subtitle format used on BDs/HD-DVDs
Title : PSDH
Language : English
Default : No
Forced : No
Menu
00:00:00.000 : en:Chapter 01
00:01:15.492 : en:Chapter 02
00:05:45.720 : en:Chapter 03
00:07:58.478 : en:Chapter 04
00:13:11.248 : en:Chapter 05
00:18:45.541 : en:Chapter 06
00:21:15.107 : en:Chapter 07
00:24:05.652 : en:Chapter 08
00:27:30.565 : en:Chapter 09
00:31:50.909 : en:Chapter 10
00:38:03.281 : en:Chapter 11
00:41:02.668 : en:Chapter 12
00:44:07.645 : en:Chapter 13
00:51:06.688 : en:Chapter 14
00:53:54.814 : en:Chapter 15
00:57:32.615 : en:Chapter 16
01:02:11.102 : en:Chapter 17
01:05:30.343 : en:Chapter 18
01:08:24.517 : en:Chapter 19
01:13:40.416 : en:Chapter 20
01:17:23.138 : en:Chapter 21
01:21:27.299 : en:Chapter 22
01:25:20.532 : en:Chapter 23
01:28:27.927 : en:Chapter 24
01:32:06.896 : en:Chapter 25
01:34:28.496 : en:Chapter 26
01:36:30.493 : en:Chapter 27
01:40:32.443 : en:Chapter 28

_________________
Показать сообщения:    

Текущее время: Сегодня 10:44

Часовой пояс: GMT



Вы не можете начинать темы
Вы не можете отвечать на сообщения
Вы не можете редактировать свои сообщения
Вы не можете удалять свои сообщения
Вы не можете голосовать в опросах
Вы не можете прикреплять файлы к сообщениям
Вы не можете скачивать файлы