Важное объявление!
У Нас Все раздачи мультитрекерные, при нуле пиров в релизах, можете смело вставать на закачку!
 
Автор Сообщение

HUNTER

Стаж:
4 года 7 месяцев
Сообщений:
61476

Репутация: 101

[+] [-]
Вне форума [Профиль] [ЛС]


Пингвины Мадагаскара | Penguins of Madagascar
«В этот раз они не останутся в тени»-
Страна:США [DreamWorks Animation, 20th Century Fox]
Жанр: комедия, приключения, семейный
Продолжительность: 01:31:49
Год выпуска: 2014
Перевод: Профессиональный (дублированный) Rus
Перевод 2: Профессиональный (дублированный) Ukr
Русские субтитры: есть
Режиссёр: Эрик Дарнелл / Eric Darnell, Саймон Дж. Смит / Simon J. Smith
Роли озвучивали: Том МакГрат, Крис Миллер, Кристофер Найтс, Конрад Вернон, Джон Малкович, Бенедикт Камбербэтч, Кен Жонг, Аннет Махендру, Петер Стормаре, Энди Рихтер
Роли дублировали: Анатолий Дубанов, Андрей Шамин, Иван Паршин, Максим Матвеев, Александр Трофимов-ОписаниеЧетвёрка пингвинов-шпионов — Шкипер, Ковальски, Рико и Прапор — объединяется с командой «Северный ветер», помогающей беззащитным животным. Им предстоит остановить злобного осьминога, доктора Октавиуса Брайна, желающего уничтожить этот мир…-
«Пингви́ны Мадагаска́ра» (Penguins of Madagascar) — компьютерно-анимационный фильм студии DreamWorks Animation, спин-офф серии фильмов «Мадагаскар» и распространяется компанией "20th Century Fox".
Сэмпл

IMDb: 6.80 (26 809)
Качество: BDRip-AVC P1ngU1n1.Madagaskara.2014.D.BDRemux HDReactor
Формат: MKV
Видео: AVC 2871 Kbps 1152 x 622 (1.852) at 23.976 fps
Аудио: AC-3 448 Kbps channels, 48.0 KHz Rus DUB
Аудио 2: AC-3 448 Kbps channels, 48.0 KHz Ukr DUB
Аудио 3: AC-3 448 Kbps channels, 48.0 KHz Eng
Субтитры: Rus, Ukr [Forced, Full], Eng

MI | Log

Log
x264 [info]: frame I:1173 Avg QP:14.41 size: 86239
x264 [info]: frame P:37374 Avg QP:16.11 size: 29269
x264 [info]: frame B:94271 Avg QP:18.51 size: 8912
x264 [info]: consecutive B-frames: 5.5% 5.4% 9.1% 52.3% 7.2% 17.4% 1.8% 0.5% 0.2% 0.1% 0.0% 0.1% 0.0% 0.1% 0.3%
x264 [info]: mb I I16..4: 6.1% 68.6% 25.3%
x264 [info]: mb P I16..4: 1.7% 15.1% 2.8% P16..4: 26.6% 31.0% 10.5% 1.8% 0.2% skip:10.3%
x264 [info]: mb B I16..4: 0.3% 1.8% 0.3% B16..8: 28.9% 18.8% 3.3% direct: 5.0% skip:41.7% L0:39.2% L1:47.8% BI:13.0%
x264 [info]: 8x8 transform intra:75.6% inter:56.4%
x264 [info]: direct mvs spatial:100.0% temporal:0.0%
x264 [info]: coded y,uvDC,uvAC intra: 82.8% 93.2% 81.1% inter: 15.8% 23.3% 9.6%
x264 [info]: i16 v,h,dc,p: 12% 24% 3% 61%
x264 [info]: i8 v,h,dc,ddl,ddr,vr,hd,vl,hu: 10% 13% 8% 8% 10% 11% 12% 11% 15%
x264 [info]: i4 v,h,dc,ddl,ddr,vr,hd,vl,hu: 13% 17% 6% 7% 12% 11% 13% 9% 12%
x264 [info]: i8c dc,h,v,p: 37% 27% 17% 18%
x264 [info]: Weighted P-Frames: Y:2.7% UV:2.4%
x264 [info]: ref P L0: 56.3% 6.7% 16.8% 5.5% 4.0% 2.9% 2.4% 1.4% 1.3% 1.1% 1.2% 0.3% 0.0%
x264 [info]: ref B L0: 79.0% 10.3% 4.2% 2.0% 1.4% 1.0% 0.8% 0.6% 0.4% 0.2%
x264 [info]: ref B L1: 94.3% 5.7%
x264 [info]: kb/s:2939.19
x264 [total]: encoded 132818 frames, 8.49 fps, 2939.19 kb/s, duration 4:20:49.03
Format                                   : MatroskaFormat version                           : Version 4 / Version 2File size                                : 2.76 GiBDuration                                 : 1h 31mnOverall bit rate                         : 4 301 KbpsEncoded date                             : UTC 2015-03-04 13:09:42Writing application                      : mkvmerge v6.7.0 ('Back to the Ground') 32bit built on Jan  8 2014 15:03:17Writing library                          : libebml v1.3.0 + libmatroska v1.4.1
VideoID : 1Format : AVCFormat/Info : Advanced Video CodecFormat profile : High@L4.1Format settings, CABAC : YesFormat settings, ReFrames : 11 framesCodec ID : V_MPEG4/ISO/AVCDuration : 1h 31mnBit rate : 2 871 KbpsWidth : 1 152 pixelsHeight : 622 pixelsDisplay aspect ratio : 1.85:1Frame rate mode : ConstantFrame rate : 23.976 fpsColor space : YUVChroma subsampling : 4:2:0Bit depth : 8 bitsScan type : ProgressiveBits/(Pixel*Frame) : 0.167Stream size : 1.84 GiB (67%)Title : Penguins of Madagascar 2014 [rutracker.org]Writing library : x264 core 144 r2525kMod 40bb568Encoding settings : cabac=1 / ref=11 / deblock=1:-2:-1 / analyse=0x3:0x133 / me=umh / subme=11 / psy=1 / fade_compensate=0.00 / psy_rd=1.00:0.05 / mixed_ref=1 / me_range=32 / chroma_me=1 / trellis=2 / 8x8dct=1 / cqm=0 / deadzone=21,11 / fast_pskip=0 / chroma_qp_offset=-3 / threads=12 / lookahead_threads=3 / sliced_threads=0 / nr=0 / decimate=1 / interlaced=0 / bluray_compat=0 / constrained_intra=0 / fgo=0 / bframes=14 / b_pyramid=2 / b_adapt=2 / b_bias=0 / direct=3 / weightb=1 / open_gop=0 / weightp=2 / keyint=250 / keyint_min=23 / scenecut=40 / intra_refresh=0 / rc_lookahead=80 / rc=crf / mbtree=0 / crf=18.1000 / qcomp=0.60 / qpmin=0 / qpmax=69 / qpstep=4 / vbv_maxrate=50000 / vbv_bufsize=62500 / crf_max=0.0 / nal_hrd=none / filler=0 / ip_ratio=1.40 / pb_ratio=1.30 / aq=3:0.90Language : EnglishDefault : YesForced : No
Audio #1ID : 2Format : AC-3Format/Info : Audio Coding 3Mode extension : CM (complete main)Format settings, Endianness : BigCodec ID : A_AC3Duration : 1h 31mnBit rate mode : ConstantBit rate : 448 KbpsChannel(s) : 6 channelsChannel positions : Front: L C R, Side: L R, LFESampling rate : 48.0 KHzBit depth : 16 bitsCompression mode : LossyStream size : 294 MiB (10%)Title : DubLanguage : RussianDefault : YesForced : No
Audio #2ID : 3Format : AC-3Format/Info : Audio Coding 3Mode extension : CM (complete main)Format settings, Endianness : BigCodec ID : A_AC3Duration : 1h 31mnBit rate mode : ConstantBit rate : 448 KbpsChannel(s) : 6 channelsChannel positions : Front: L C R, Side: L R, LFESampling rate : 48.0 KHzBit depth : 16 bitsCompression mode : LossyStream size : 294 MiB (10%)Title : DubLanguage : UkrainianDefault : NoForced : No
Audio #3ID : 4Format : AC-3Format/Info : Audio Coding 3Mode extension : CM (complete main)Format settings, Endianness : BigCodec ID : A_AC3Duration : 1h 31mnBit rate mode : ConstantBit rate : 448 KbpsChannel(s) : 6 channelsChannel positions : Front: L C R, Side: L R, LFESampling rate : 48.0 KHzBit depth : 16 bitsCompression mode : LossyStream size : 294 MiB (10%)Title : OroginalLanguage : EnglishDefault : NoForced : No
Text #1ID : 5Format : UTF-8Codec ID : S_TEXT/UTF8Codec ID/Info : UTF-8 Plain TextTitle : ForcedLanguage : RussianDefault : YesForced : No
Text #2ID : 6Format : UTF-8Codec ID : S_TEXT/UTF8Codec ID/Info : UTF-8 Plain TextTitle : FullLanguage : RussianDefault : NoForced : No
Text #3ID : 7Format : UTF-8Codec ID : S_TEXT/UTF8Codec ID/Info : UTF-8 Plain TextTitle : ForcedLanguage : UkrainianDefault : NoForced : No
Text #4ID : 8Format : UTF-8Codec ID : S_TEXT/UTF8Codec ID/Info : UTF-8 Plain TextTitle : FullLanguage : UkrainianDefault : NoForced : No
Text #5ID : 9Format : UTF-8Codec ID : S_TEXT/UTF8Codec ID/Info : UTF-8 Plain TextTitle : FullLanguage : EnglishDefault : NoForced : No
Menu00:00:00.000 : en:100:03:38.000 : en:200:07:27.000 : en:300:09:23.000 : en:400:12:09.000 : en:500:16:08.000 : en:600:19:21.000 : en:700:23:02.000 : en:800:26:57.000 : en:900:28:59.000 : en:1000:30:34.000 : en:1100:33:59.000 : en:1200:38:03.000 : en:1300:41:28.000 : en:1400:44:22.000 : en:1500:46:37.000 : en:1600:49:10.000 : en:1700:54:28.000 : en:1800:55:57.000 : en:1901:00:00.000 : en:2001:03:03.000 : en:2101:06:37.000 : en:2201:09:48.000 : en:2301:12:06.000 : en:2401:14:15.000 : en:2501:15:54.000 : en:2601:18:23.000 : en:2701:20:44.000 : en:28

Скриншоты






_________________
Показать сообщения:    

Текущее время: Сегодня 18:57

Часовой пояс: GMT



Вы не можете начинать темы
Вы не можете отвечать на сообщения
Вы не можете редактировать свои сообщения
Вы не можете удалять свои сообщения
Вы не можете голосовать в опросах
Вы не можете прикреплять файлы к сообщениям
Вы не можете скачивать файлы
Наши партнеры: интернет магазин Ивановского трикотажа textilla.ru