Важное объявление!
У Нас Все раздачи мультитрекерные, при нуле пиров в релизах, можете смело вставать на закачку!
 
Автор Сообщение

HUNTER

Стаж:
4 года 8 месяцев
Сообщений:
62060

Репутация: 101

[+] [-]
Вне форума [Профиль] [ЛС]

Пилот международных авиалиний-
Год выпуска: 2011
Страна: Россия,
Жанр: приключения
Продолжительность: ~00:43:19
Перевод: не требуется
Субтитры: отсутствуют
Сезон: 1
Серии: 1-16 из 16-Режиссер: Армен Арутюнян-В ролях:
Александр Домогаров, Кирилл Сафонов, Дмитрий Нагиев, Ирина Темечива, Дмитрий Комов, Татьяна Космачева, Татьяна Мещеркина, Натали Старынкевич, Ирина Темичева, Людмила Полякова-Описание:
Друзья Степанов и Мечников — пилоты гражданской авиации — из-за нештатной ситуации во время полета сажают лайнер прямо на трассу. На время расследования аварии пилотов отстраняют от работы, и Мечников отправляется на поиски затонувшего под Чернолесском фашистского самолета, на борту которого должен быть изумрудный ларец императрицы Анны Иоанновны. А Александр Степанов начинает собственное расследование гибели супруги. В расследовании ему помогает врач Емельян Стрешнёв.-Качество: SATRip
Формат: AVI
Видео кодек: XviD
Аудио кодек: MP3
Видео: 704x384 (1.83:1), 25 fps, XviD build 50 ~1401 kbps avg, 0.21 bit/pixel
Аудио 1: 48 kHz, MPEG Layer 3, 2 ch, ~128.00 kbps avg-

Доп. информация


Интересный факт: В первой серии фильма , в полёте , в кабине пилотов мигало табло " К взлёту не готов "

MediaInfo

Код: copyText_writeLink('this.parentNode.parentNode.nextSibling.nextSibling');
General
Complete name : Pilot.Mezhdunarodnyh.Avialinyi.01.avi
Format : AVI
Format/Info : Audio Video Interleave
File size : 477 MiB
Duration : 43mn 19s
Overall bit rate : 1 539 Kbps
Writing library : VirtualDub build 32842/release
Video
ID : 0
Format : MPEG-4 Visual
Format profile : Advanced Simple@L5
Format settings, BVOP : 2
Format settings, QPel : No
Format settings, GMC : No warppoints
Format settings, Matrix : Default (MPEG)
Codec ID : XVID
Codec ID/Hint : XviD
Duration : 43mn 19s
Bit rate : 1 402 Kbps
Width : 704 pixels
Height : 384 pixels
Display aspect ratio : 16:9
Frame rate : 25.000 fps
Color space : YUV
Chroma subsampling : 4:2:0
Bit depth : 8 bits
Scan type : Progressive
Compression mode : Lossy
Bits/(Pixel*Frame) : 0.207
Stream size : 434 MiB (91%)
Writing library : XviD 1.2.1 (UTC 2008-12-04)
Audio
ID : 1
Format : MPEG Audio
Format version : Version 1
Format profile : Layer 3
Mode : Joint stereo
Mode extension : MS Stereo
Codec ID : 55
Codec ID/Hint : MP3
Duration : 43mn 19s
Bit rate mode : Constant
Bit rate : 128 Kbps
Channel(s) : 2 channels
Sampling rate : 48.0 KHz
Compression mode : Lossy
Stream size : 39.7 MiB (8%)
Alignment : Split accross interleaves
Interleave, duration : 40 ms (1.00 video frame)
Interleave, preload duration : 500 ms
Writing library : LAME3.98r
Encoding settings : -m j -V 4 -q 2 -lowpass 17 -b 128

Скриншоты


_________________
Показать сообщения:    

Текущее время: Сегодня 07:30

Часовой пояс: GMT



Вы не можете начинать темы
Вы не можете отвечать на сообщения
Вы не можете редактировать свои сообщения
Вы не можете удалять свои сообщения
Вы не можете голосовать в опросах
Вы не можете прикреплять файлы к сообщениям
Вы не можете скачивать файлы
Наши партнеры: интернет магазин Ивановского трикотажа textilla.ru