Ивановский Торрент трекер
Яндекс.Погода
 

[Цитировать]
HUNTER

Пилигрим - Видеография-Период выхода клипов: 2006-2011
Жанр:Heavy Metal
Продолжительность:00:56:17
Тип издания: Видиография
Страна:Россия-Треклист:
DVDRip
1 Марта
2 Не гасите свечу
3 Иуда
4 Рёв моторов
5 Битва
6 Мой не рождённый сын
7 Хищники
8 Не демон, не ангел
9 Слава России!
10 На линии огня
11 Пилигрим
WEBRip:
12 Памяти Егора Летова
13 Забыл-Качество:DVDRip/WEBRip
Формат:MPEG-PS/AVI
Видео кодек:MPEG-2/DIVX-5/MPEG-4
Аудио кодек:AC-3/MPEG-1/PCM
Дополнительная информация: Подробная информация к каждому клипу Вы найдёте под спойлером, расположенным под скриншотами-

О группе

«Пилигрим» – путешествие во времени
История странствий «Пилигрима» началась задолго до нынешних дней. Более 30 лет тому назад, в середине 70-х, в пенатах Московского автомобильно-дорожного института (МАДИ) несколько студентов учебного заведения дали имя новому музыкальному проекту, созданному благодаря любви к тяжелому року (и творчеству Deep Purple, в частности). Бас-гитаристом этого состава группы был Андрей КОВАЛЕВ.
В течение 1975-го ребята репетировали, исполняя песни тех же Deep Purple, отыграли несколько концертов. Однако менее, чем через год, истории «Пилигрима» было суждено прерваться – чтобы продолжить свой путь спустя 3 долгих десятилетия.
В начале 2005 года Андрей КОВАЛЕВ решил вернуть к жизни «Пилигрим», собрав новый состав музыкантов. Помимо самого Андрея, в новое путешествие отправились Алексей ИОВЧЕВ, Александр НОСКОВ, Дмитрий СОСОВ, Андрей ПРИСТАВКА, Ираклий ЧОЛАДЗЕ и Александр ЛОСЕВ. Новый «Пилигрим» уже не исполнял суперхитов зарубежных кумиров - музыку и слова ко всем песням написал Андрей КОВАЛЕВ. Где же еще мог состояться первый концерт обновленной группы, как не на байк-фестивале? Ведь само название «Пилигрим» (да и все творчество коллектива) так близко по духу этим свободолюбивым скитальцам. Байк-шоу в Пушкино (май 2005 года) стало первым «боевым крещением» команды. И оно прошло успешно! Байкеры поддержали творческий порыв своего друга «Аркадича».
После было еще множество концертов: на столичных площадках, на крупномасштабных рок-фестивалях «Нашествие-2005», «Эммаус-2006» и «Эммаус-2007», на международном фестивале «BASINFIREFEST-2007» (Чехия), на рок-фестивалях «Слава России!» в Москве, Орле и Нижнем Новгороде… Параллельно с концертной деятельностью музыканты нарабатывают музыкальный материал, аранжируют новые песни для дебютного полноформатного альбома группы.
В сентябре 2006 года группа сняла свой первый клип. Сценаристом и режиссером видео на одноименную песню «Пилигрим» стал знаменитый клипмейкер Александр СОЛОХА. Следом были сняты клипы к композициям «На линии огня» (записана совместно с группой «Мастер»), «Слава России», «Не демон, не ангел», «Хищники» и «Мой нерождённый сын».
И вот, наконец, в 2007 году группа выпустила свой первый альбом «Слава России!». Написанные Андреем КОВАЛЕВЫМ песни нашли воплощение в драйве классического хард-рока и хэви-метала, с жесткими риффами, сильными мелодиями и запоминающимися рефренами. С января 2008 года группа продолжает свои странствия по России, однако уже в обновленном составе. «Пилигрим» объединил под своим именем лучших музыкантов отечественной тяжелой сцены: кроме бессменного лидера и вокалиста Андрея КОВАЛЕВА, в него вошли гитарист Алексей СТРАЙК, барабанщик Александр КАРПУХИН, гитарист Павел ВЕТРОВ, бас-гитарист Игорь «Бах» МОРАВСКИЙ и клавишник Юрий ПЛЕХАНОВ. В течение 2008 года мастерство и профессионализм нового состава группы смогли оценить десятки тысяч поклонников тяжелой музыки из более чем 100 городов России, которые «Пилигрим» посетил в ходе самого масштабного в истории российской рок-сцены тура.
Летом 2008 года «Пилигрим» пополнил свою коллекцию клипов двумя новыми работами: совместным видео с группой Apocalyptica на песню «Иуда» и роликом «Не гасите свечу», снятым по мотивам фильма Дольфа ЛУНДГРЕНА Command Perfomance, в котором музыканты «Пилигрима» сыграли самих себя. Но на этом лидер команды не остановился – Андрей пригласил в Москву голливудскую красотку Памелу АНДЕРСОН, которая снялась в новом «байкерском» видео «Рев моторов». Все три экранизированные композиции вошли во второй альбом «Пилигрима» «Выбора нет», презентация которого состоялась в ноябре 2008 года. Диск порадовал поклонников коллектива великолепным качеством звучания и поразительным по разнообразию материалом, сочетающим в себе верность классическим традициям тяжелой музыки и современный жесткий метал-саунд. Лиричность и мощный драйв, сильные мелодии и запоминающиеся рефрены, словно созданные для хорового исполнения многотысячной толпой на концертах, – характерные черты новой работы «Пилигрим».
Презентация альбома проходит в Москве и многих других городах России – путешествие «Пилигрима» продолжается, привлекая к себе все больше и больше внимания поклонников качественной тяжелой музыки и масс-медиа. В начале 2009 года группа выпускает DVD «Концерт под дождем», получивший отличные отзывы как один из самых профессиональных «живых» альбомов российской «тяжелой» сцены.
Судьба «Пилигрима» тесно связана с судьбой масштабного проекта 1ROCK, составной частью которого является хорошо знакомый столичной публике одноименный клуб. 4 апреля 2009 года клуб 1ROCK праздновал первый День Рождения, пригласив на него своих друзей «пилигримов», а также сразу две легенды европейского пауэр-метала: Primal Fear и Sinner. «Пилигрим» вместе с немецкими братьями по металлу подарил клубу и его посетителям яркое шоу, создавшее атмосферу настоящего праздника.
Сейчас группа готовится к новым концертам и активно работает над новым материалом – а это значит, что странствие «Пилигрима» по просторам рока еще только начинается!
Состав
Андрей «Аркадич» Ковалёв — вокал
Алексей Страйк — гитара
Олег Изотов — гитара
Александр Карпухин — барабаны
Игорь «Бах» Моравский — бас-гитара
Юрий Плеханов — клавишные инструменты
DJ Shved — DJ
-

Скриншоты и Инфо по каждому клипу

DVDRip

Марта

Инфо

Общее
Полное имя : F:\МУЗЫКА\Клипы\Пилигрим - Все клипы\01 Марта.mpg
Формат : MPEG-PS
Размер файла : 150 Мбайт
Продолжительность : 3 м. 21 с.
Общий поток : 6245 Кбит/сек
Видео
Идентификатор : 224 (0xE0)
Формат : MPEG Video
Версия формата : Version 2
Профиль формата : Main@Main
Параметр BVOP формата : Да
Параметр матрицы формата : По умолчанию
Параметры GOP формата : M=3, N=12
Продолжительность : 3 м. 21 с.
Вид битрейта : Переменный
Битрейт : 5896 Кбит/сек
Номинальный битрейт : 8000 Кбит/сек
Ширина : 720 пикс.
Высота : 576 пикс.
Соотношение сторон : 4:3
Частота кадров : 25,000 кадр/сек
Стандарт вещания : PAL
Цветовое пространство : YUV
Подвыборка цветности : 4:2:0
Битовая глубина : 8 бит
Тип развёртки : Чересстрочная
Порядок развёртки : Верхнее поле первое
Метод сжатия : С потерями
Бит/(Пиксели*Кадры) : 0.569
Размер потока : 141 Мбайт (94%)
Аудио
Идентификатор : 192 (0xC0)
Формат : MPEG Audio
Версия формата : Version 1
Профиль формата : Layer 2
Продолжительность : 3 м. 21 с.
Вид битрейта : Постоянный
Битрейт : 224 Кбит/сек
Канал(ы) : 2 канала(ов)
Частота : 48,0 КГц
Метод сжатия : С потерями
Размер потока : 5,37 Мбайт (4%)
Меню

Не гасите свечу

Инфо

Общее
Полное имя : F:\МУЗЫКА\Клипы\Пилигрим - Все клипы\02 Не гасите свечу.mpg
Формат : MPEG-PS
Размер файла : 281 Мбайт
Продолжительность : 5 м. 12 с.
Общий поток : 7551 Кбит/сек
Видео
Идентификатор : 224 (0xE0)
Формат : MPEG Video
Версия формата : Version 2
Профиль формата : Main@Main
Параметр BVOP формата : Да
Параметр матрицы формата : По умолчанию
Параметры GOP формата : M=3, N=12
Продолжительность : 5 м. 12 с.
Вид битрейта : Переменный
Битрейт : 7177 Кбит/сек
Номинальный битрейт : 8500 Кбит/сек
Ширина : 720 пикс.
Высота : 576 пикс.
Соотношение сторон : 4:3
Частота кадров : 25,000 кадр/сек
Стандарт вещания : PAL
Цветовое пространство : YUV
Подвыборка цветности : 4:2:0
Битовая глубина : 8 бит
Тип развёртки : Чересстрочная
Порядок развёртки : Верхнее поле первое
Метод сжатия : С потерями
Бит/(Пиксели*Кадры) : 0.692
Размер потока : 267 Мбайт (95%)
Аудио
Идентификатор : 192 (0xC0)
Формат : MPEG Audio
Версия формата : Version 1
Профиль формата : Layer 2
Продолжительность : 5 м. 12 с.
Вид битрейта : Постоянный
Битрейт : 224 Кбит/сек
Канал(ы) : 2 канала(ов)
Частота : 48,0 КГц
Метод сжатия : С потерями
Размер потока : 8,33 Мбайт (3%)
Меню

Иуда

Инфо

Общее
Полное имя : F:\МУЗЫКА\Клипы\Пилигрим - Все клипы\03 Иуда.mpg
Формат : MPEG-PS
Размер файла : 209 Мбайт
Продолжительность : 5 м. 11 с.
Общий поток : 5644 Кбит/сек
Видео
Идентификатор : 224 (0xE0)
Формат : MPEG Video
Версия формата : Version 2
Профиль формата : Main@Main
Параметр BVOP формата : Да
Параметр матрицы формата : По умолчанию
Параметры GOP формата : M=3, N=12
Продолжительность : 5 м. 11 с.
Вид битрейта : Переменный
Битрейт : 3996 Кбит/сек
Номинальный битрейт : 7000 Кбит/сек
Ширина : 720 пикс.
Высота : 576 пикс.
Соотношение сторон : 4:3
Частота кадров : 25,000 кадр/сек
Стандарт вещания : PAL
Цветовое пространство : YUV
Подвыборка цветности : 4:2:0
Битовая глубина : 8 бит
Тип развёртки : Чересстрочная
Порядок развёртки : Верхнее поле первое
Метод сжатия : С потерями
Бит/(Пиксели*Кадры) : 0.385
Размер потока : 148 Мбайт (71%)
Аудио
Идентификатор : 189 (0xBD)-160 (0xA0)
Формат : PCM
Параметр Endianness формата : Big
Параметр Sign формата : Signed
Режим смешивания : DVD-Video
Продолжительность : 5 м. 11 с.
Вид битрейта : Постоянный
Битрейт : 1536 Кбит/сек
Канал(ы) : 2 канала(ов)
Расположение каналов : Front: L R
Частота : 48,0 КГц
Битовая глубина : 16 бит
Размер потока : 56,9 Мбайт (27%)
Меню

Рёв моторов

Инфо

Общее
Полное имя : F:\МУЗЫКА\Клипы\Пилигрим - Все клипы\04 Рев моторов.mpg
Формат : MPEG-PS
Размер файла : 250 Мбайт
Продолжительность : 4 м. 36 с.
Общий поток : 7561 Кбит/сек
Видео
Идентификатор : 224 (0xE0)
Формат : MPEG Video
Версия формата : Version 2
Профиль формата : Main@Main
Параметр BVOP формата : Да
Параметр матрицы формата : По умолчанию
Параметры GOP формата : M=3, N=12
Продолжительность : 4 м. 36 с.
Вид битрейта : Переменный
Битрейт : 5875 Кбит/сек
Номинальный битрейт : 8000 Кбит/сек
Ширина : 720 пикс.
Высота : 576 пикс.
Соотношение сторон : 4:3
Частота кадров : 25,000 кадр/сек
Стандарт вещания : PAL
Цветовое пространство : YUV
Подвыборка цветности : 4:2:0
Битовая глубина : 8 бит
Тип развёртки : Чересстрочная
Порядок развёртки : Верхнее поле первое
Метод сжатия : С потерями
Бит/(Пиксели*Кадры) : 0.567
Размер потока : 194 Мбайт (78%)
Аудио
Идентификатор : 189 (0xBD)-160 (0xA0)
Формат : PCM
Параметр Endianness формата : Big
Параметр Sign формата : Signed
Режим смешивания : DVD-Video
Продолжительность : 4 м. 36 с.
Вид битрейта : Постоянный
Битрейт : 1536 Кбит/сек
Канал(ы) : 2 канала(ов)
Расположение каналов : Front: L R
Частота : 48,0 КГц
Битовая глубина : 16 бит
Размер потока : 50,7 Мбайт (20%)
Меню

Битва

инфо

Общее
Полное имя : F:\МУЗЫКА\Клипы\Пилигрим - Все клипы\05 Битва.mpg
Формат : MPEG-PS
Размер файла : 297 Мбайт
Продолжительность : 5 м. 28 с.
Общий поток : 7590 Кбит/сек
Видео
Идентификатор : 224 (0xE0)
Формат : MPEG Video
Версия формата : Version 2
Профиль формата : Main@Main
Параметр BVOP формата : Да
Параметр матрицы формата : По умолчанию
Параметры GOP формата : M=3, N=12
Продолжительность : 5 м. 28 с.
Вид битрейта : Переменный
Битрейт : 7247 Кбит/сек
Номинальный битрейт : 8000 Кбит/сек
Ширина : 720 пикс.
Высота : 576 пикс.
Соотношение сторон : 4:3
Частота кадров : 25,000 кадр/сек
Стандарт вещания : PAL
Цветовое пространство : YUV
Подвыборка цветности : 4:2:0
Битовая глубина : 8 бит
Тип развёртки : Чересстрочная
Порядок развёртки : Верхнее поле первое
Метод сжатия : С потерями
Бит/(Пиксели*Кадры) : 0.699
Размер потока : 284 Мбайт (95%)
Аудио
Идентификатор : 189 (0xBD)-128 (0x80)
Формат : AC-3
Формат/Информация : Audio Coding 3
Расширение режима : CM (complete main)
Режим смешивания : DVD-Video
Продолжительность : 5 м. 28 с.
Вид битрейта : Постоянный
Битрейт : 192 Кбит/сек
Канал(ы) : 2 канала(ов)
Расположение каналов : Front: L R
Частота : 48,0 КГц
Битовая глубина : 16 бит
Метод сжатия : С потерями
Задержка видео : 32 мс.
Размер потока : 7,52 Мбайт (3%)
Меню

Мой не рождённый сын

Инфо

Общее
Полное имя : F:\МУЗЫКА\Клипы\Пилигрим - Все клипы\06 Мой нерожденный сын.mpg
Формат : MPEG-PS
Размер файла : 217 Мбайт
Продолжительность : 4 м. 36 с.
Общий поток : 6585 Кбит/сек
Видео
Идентификатор : 224 (0xE0)
Формат : MPEG Video
Версия формата : Version 2
Профиль формата : Main@Main
Параметр BVOP формата : Да
Параметр матрицы формата : По умолчанию
Параметры GOP формата : M=3, N=12
Продолжительность : 4 м. 36 с.
Вид битрейта : Переменный
Битрейт : 6262 Кбит/сек
Номинальный битрейт : 7700 Кбит/сек
Ширина : 720 пикс.
Высота : 576 пикс.
Соотношение сторон : 4:3
Частота кадров : 25,000 кадр/сек
Стандарт вещания : PAL
Цветовое пространство : YUV
Подвыборка цветности : 4:2:0
Битовая глубина : 8 бит
Тип развёртки : Чересстрочная
Порядок развёртки : Нижнее поле первое
Метод сжатия : С потерями
Бит/(Пиксели*Кадры) : 0.604
Размер потока : 206 Мбайт (95%)
Аудио
Идентификатор : 189 (0xBD)-128 (0x80)
Формат : AC-3
Формат/Информация : Audio Coding 3
Расширение режима : CM (complete main)
Режим смешивания : DVD-Video
Продолжительность : 4 м. 36 с.
Вид битрейта : Постоянный
Битрейт : 192 Кбит/сек
Канал(ы) : 2 канала(ов)
Расположение каналов : Front: L R
Частота : 48,0 КГц
Битовая глубина : 16 бит
Метод сжатия : С потерями
Задержка видео : 32 мс.
Размер потока : 6,33 Мбайт (3%)
Меню

Хищники

Инфо

Общее
Полное имя : F:\МУЗЫКА\Клипы\Пилигрим - Все клипы\07 Хищники.mpg
Формат : MPEG-PS
Размер файла : 176 Мбайт
Продолжительность : 3 м. 57 с.
Общий поток : 6217 Кбит/сек
Видео
Идентификатор : 224 (0xE0)
Формат : MPEG Video
Версия формата : Version 2
Профиль формата : Main@Main
Параметр BVOP формата : Да
Параметр матрицы формата : По умолчанию
Параметры GOP формата : M=3, N=12
Продолжительность : 3 м. 57 с.
Вид битрейта : Переменный
Битрейт : 5901 Кбит/сек
Номинальный битрейт : 9641 Кбит/сек
Ширина : 720 пикс.
Высота : 576 пикс.
Соотношение сторон : 4:3
Частота кадров : 25,000 кадр/сек
Стандарт вещания : PAL
Цветовое пространство : YUV
Подвыборка цветности : 4:2:0
Битовая глубина : 8 бит
Тип развёртки : Чересстрочная
Порядок развёртки : Верхнее поле первое
Метод сжатия : С потерями
Бит/(Пиксели*Кадры) : 0.569
Размер потока : 167 Мбайт (95%)
Аудио
Идентификатор : 189 (0xBD)-128 (0x80)
Формат : AC-3
Формат/Информация : Audio Coding 3
Расширение режима : CM (complete main)
Режим смешивания : DVD-Video
Продолжительность : 3 м. 57 с.
Вид битрейта : Постоянный
Битрейт : 192 Кбит/сек
Канал(ы) : 2 канала(ов)
Расположение каналов : Front: L R
Частота : 48,0 КГц
Битовая глубина : 16 бит
Метод сжатия : С потерями
Задержка видео : 16 мс.
Размер потока : 5,43 Мбайт (3%)
Меню

Не демон, не ангел

Инфо

Общее
Полное имя : F:\МУЗЫКА\Клипы\Пилигрим - Все клипы\08 Не демон, не ангел.mpg
Формат : MPEG-PS
Размер файла : 189 Мбайт
Продолжительность : 4 м. 15 с.
Общий поток : 6215 Кбит/сек
Видео
Идентификатор : 224 (0xE0)
Формат : MPEG Video
Версия формата : Version 2
Профиль формата : Main@Main
Параметр BVOP формата : Да
Параметр матрицы формата : По умолчанию
Параметры GOP формата : M=3, N=12
Продолжительность : 4 м. 15 с.
Вид битрейта : Переменный
Битрейт : 5900 Кбит/сек
Номинальный битрейт : 9641 Кбит/сек
Ширина : 720 пикс.
Высота : 576 пикс.
Соотношение сторон : 4:3
Частота кадров : 25,000 кадр/сек
Стандарт вещания : PAL
Цветовое пространство : YUV
Подвыборка цветности : 4:2:0
Битовая глубина : 8 бит
Тип развёртки : Чересстрочная
Порядок развёртки : Верхнее поле первое
Метод сжатия : С потерями
Бит/(Пиксели*Кадры) : 0.569
Размер потока : 179 Мбайт (95%)
Аудио
Идентификатор : 189 (0xBD)-128 (0x80)
Формат : AC-3
Формат/Информация : Audio Coding 3
Расширение режима : CM (complete main)
Режим смешивания : DVD-Video
Продолжительность : 4 м. 14 с.
Вид битрейта : Постоянный
Битрейт : 192 Кбит/сек
Канал(ы) : 2 канала(ов)
Расположение каналов : Front: L R
Частота : 48,0 КГц
Битовая глубина : 16 бит
Метод сжатия : С потерями
Задержка видео : -24 мс.
Размер потока : 5,83 Мбайт (3%)
Меню

Слава России!

Инфо

Общее
Полное имя : F:\МУЗЫКА\Клипы\Пилигрим - Все клипы\09 Слава России!.mpg
Формат : MPEG-PS
Размер файла : 157 Мбайт
Продолжительность : 3 м. 34 с.
Общий поток : 6155 Кбит/сек
Видео
Идентификатор : 224 (0xE0)
Формат : MPEG Video
Версия формата : Version 2
Профиль формата : Main@Main
Параметр BVOP формата : Да
Параметр матрицы формата : По умолчанию
Параметры GOP формата : M=3, N=12
Продолжительность : 3 м. 34 с.
Вид битрейта : Переменный
Битрейт : 5840 Кбит/сек
Номинальный битрейт : 9641 Кбит/сек
Ширина : 720 пикс.
Высота : 576 пикс.
Соотношение сторон : 4:3
Частота кадров : 25,000 кадр/сек
Стандарт вещания : PAL
Цветовое пространство : YUV
Подвыборка цветности : 4:2:0
Битовая глубина : 8 бит
Тип развёртки : Чересстрочная
Порядок развёртки : Верхнее поле первое
Метод сжатия : С потерями
Бит/(Пиксели*Кадры) : 0.563
Размер потока : 149 Мбайт (95%)
Аудио
Идентификатор : 189 (0xBD)-128 (0x80)
Формат : AC-3
Формат/Информация : Audio Coding 3
Расширение режима : CM (complete main)
Режим смешивания : DVD-Video
Продолжительность : 3 м. 33 с.
Вид битрейта : Постоянный
Битрейт : 192 Кбит/сек
Канал(ы) : 2 канала(ов)
Расположение каналов : Front: L R
Частота : 48,0 КГц
Битовая глубина : 16 бит
Метод сжатия : С потерями
Задержка видео : -24 мс.
Размер потока : 4,89 Мбайт (3%)
Меню

На линии огня

Инфо

Общее
Полное имя : F:\МУЗЫКА\Клипы\Пилигрим - Все клипы\10 На линии огня.mpg
Формат : MPEG-PS
Размер файла : 159 Мбайт
Продолжительность : 3 м. 32 с.
Общий поток : 6269 Кбит/сек
Видео
Идентификатор : 224 (0xE0)
Формат : MPEG Video
Версия формата : Version 2
Профиль формата : Main@Main
Параметр BVOP формата : Да
Параметр матрицы формата : По умолчанию
Параметры GOP формата : M=3, N=12
Продолжительность : 3 м. 32 с.
Вид битрейта : Переменный
Битрейт : 5952 Кбит/сек
Номинальный битрейт : 9641 Кбит/сек
Ширина : 720 пикс.
Высота : 576 пикс.
Соотношение сторон : 4:3
Частота кадров : 25,000 кадр/сек
Стандарт вещания : PAL
Цветовое пространство : YUV
Подвыборка цветности : 4:2:0
Битовая глубина : 8 бит
Тип развёртки : Чересстрочная
Порядок развёртки : Верхнее поле первое
Метод сжатия : С потерями
Бит/(Пиксели*Кадры) : 0.574
Размер потока : 151 Мбайт (95%)
Аудио
Идентификатор : 189 (0xBD)-128 (0x80)
Формат : AC-3
Формат/Информация : Audio Coding 3
Расширение режима : CM (complete main)
Режим смешивания : DVD-Video
Продолжительность : 3 м. 32 с.
Вид битрейта : Постоянный
Битрейт : 192 Кбит/сек
Канал(ы) : 2 канала(ов)
Расположение каналов : Front: L R
Частота : 48,0 КГц
Битовая глубина : 16 бит
Метод сжатия : С потерями
Задержка видео : 16 мс.
Размер потока : 4,85 Мбайт (3%)
Меню

Пилигрим

Инфо

Общее
Полное имя : F:\МУЗЫКА\Клипы\Пилигрим - Все клипы\11 Пилигрим.mpg
Формат : MPEG-PS
Размер файла : 261 Мбайт
Продолжительность : 3 м. 49 с.
Общий поток : 9543 Кбит/сек
Видео
Идентификатор : 224 (0xE0)
Формат : MPEG Video
Версия формата : Version 2
Профиль формата : Main@Main
Параметр BVOP формата : Да
Параметр матрицы формата : По умолчанию
Параметры GOP формата : M=3, N=12
Продолжительность : 3 м. 49 с.
Вид битрейта : Переменный
Битрейт : 8969 Кбит/сек
Номинальный битрейт : 9610 Кбит/сек
Ширина : 720 пикс.
Высота : 576 пикс.
Соотношение сторон : 4:3
Частота кадров : 25,000 кадр/сек
Стандарт вещания : PAL
Цветовое пространство : YUV
Подвыборка цветности : 4:2:0
Битовая глубина : 8 бит
Тип развёртки : Чересстрочная
Порядок развёртки : Верхнее поле первое
Метод сжатия : С потерями
Бит/(Пиксели*Кадры) : 0.865
Размер потока : 245 Мбайт (94%)
Аудио
Идентификатор : 192 (0xC0)
Формат : MPEG Audio
Версия формата : Version 1
Профиль формата : Layer 2
Продолжительность : 3 м. 49 с.
Вид битрейта : Постоянный
Битрейт : 384 Кбит/сек
Канал(ы) : 2 канала(ов)
Частота : 48,0 КГц
Метод сжатия : С потерями
Задержка видео : -32 мс.
Размер потока : 10,5 Мбайт (4%)
Меню

WEBRip

Памяти Егора Летова

Инфо

Общее
Полное имя : F:\МУЗЫКА\Клипы\Пилигрим - Все клипы\12 Памяти Егора Летова.avi
Формат : AVI
Формат/Информация : Audio Video Interleave
Размер файла : 55,0 Мбайт
Продолжительность : 5 м. 24 с.
Общий поток : 1420 Кбит/сек
Программа кодирования : VirtualDubMod 1.5.4.1 (build 2178/release)
Библиотека кодирования : VirtualDubMod build 2178/release
Видео
Идентификатор : 0
Формат : MPEG-4 Visual
Параметр BVOP формата : 1
Параметр QPel формата : Нет
Параметр GMC формата : Без точки перехода
Параметр матрицы формата : Default (H.263)
Режим смешивания : Сжатый битовый поток
Идентификатор кодека : DX50
Идентификатор кодека/Подсказка : DivX 5
Продолжительность : 5 м. 24 с.
Битрейт : 1285 Кбит/сек
Ширина : 640 пикс.
Высота : 480 пикс.
Соотношение сторон : 4:3
Частота кадров : 25,000 кадр/сек
Цветовое пространство : YUV
Подвыборка цветности : 4:2:0
Битовая глубина : 8 бит
Тип развёртки : Прогрессивная
Метод сжатия : С потерями
Бит/(Пиксели*Кадры) : 0.167
Размер потока : 49,7 Мбайт (90%)
Библиотека кодирования : DivX 6.8.3-6.8.4 (UTC 2008-06-07)
Аудио
Идентификатор : 1
Формат : MPEG Audio
Версия формата : Version 1
Профиль формата : Layer 3
Режим : Joint stereo
Расширение режима : MS Stereo
Идентификатор кодека : 55
Идентификатор кодека/Подсказка : MP3
Продолжительность : 5 м. 24 с.
Вид битрейта : Постоянный
Битрейт : 128 Кбит/сек
Канал(ы) : 2 канала(ов)
Частота : 48,0 КГц
Метод сжатия : С потерями
Размер потока : 4,95 Мбайт (9%)
Выравнивание : Соединение по промежуткам
Продолжительность промежутка : 80 мс. (2,00 видеокадров)
Время предзагрузки промежутка : 504 ms
Библиотека кодирования : LAME3.98r
Настройки программы : -m j -V 4 -q 2 -lowpass 17 -b 128

Забыл

Инфо

Общее
Полное имя : F:\МУЗЫКА\Клипы\Пилигрим - Все клипы\13 Забыл .avi
Формат : AVI
Формат/Информация : Audio Video Interleave
Размер файла : 44,2 Мбайт
Продолжительность : 3 м. 22 с.
Общий поток : 1829 Кбит/сек
Программа кодирования : Lavf51.12.1
Видео
Идентификатор : 0
Формат : AVC
Формат/Информация : Advanced Video Codec
Профиль формата : Baseline@L1.3
Параметр CABAC формата : Нет
Параметр ReFrames формата : 1 кадр
Параметры GOP формата : M=1, N=12
Идентификатор кодека : H264
Продолжительность : 3 м. 22 с.
Битрейт : 1688 Кбит/сек
Ширина : 1280 пикс.
Высота : 720 пикс.
Соотношение сторон : 16:9
Частота кадров : 29,970 кадр/сек
Цветовое пространство : YUV
Подвыборка цветности : 4:2:0
Битовая глубина : 8 бит
Тип развёртки : Прогрессивная
Бит/(Пиксели*Кадры) : 0.061
Размер потока : 40,8 Мбайт (92%)
Аудио
Идентификатор : 1
Формат : MPEG Audio
Версия формата : Version 1
Профиль формата : Layer 3
Режим : Joint stereo
Расширение режима : MS Stereo
Идентификатор кодека : 55
Идентификатор кодека/Подсказка : MP3
Продолжительность : 3 м. 22 с.
Вид битрейта : Постоянный
Битрейт : 128 Кбит/сек
Канал(ы) : 2 канала(ов)
Частота : 44,1 КГц
Метод сжатия : С потерями
Размер потока : 3,09 Мбайт (7%)
Выравнивание : Соединение по промежуткам
Продолжительность промежутка : 26 мс. (0,78 видеокадр)
-
Показать сообщения:    

Текущее время: 20-Сен 02:57

Часовой пояс: UTC - 1


Вы не можете начинать темы
Вы не можете отвечать на сообщения
Вы не можете редактировать свои сообщения
Вы не можете удалять свои сообщения
Вы не можете голосовать в опросах
Вы не можете прикреплять файлы к сообщениям
Вы не можете скачивать файлы

!ВНИМАНИЕ!
Сайт не предоставляет электронные версии произведений, а занимается лишь коллекционированием и каталогизацией ссылок, присылаемых и публикуемых на форуме нашими читателями. Если вы являетесь правообладателем какого-либо представленного материала и не желаете, чтобы ссылка на него находилась в нашем каталоге, свяжитесь с нами, и мы незамедлительно удалим ее. Файлы для обмена на трекере предоставлены пользователями сайта, и администрация не несет ответственности за их содержание. Просьба не заливать файлы, защищенные авторскими правами, а также файлы нелегального содержания!