Ивановский Торрент трекер
Яндекс.Погода
 

[Цитировать]
HUNTER

Петух из Сан-Виктор / Le Coq de St-Victor
Страна: Канада
Жанр: Комедия, семейный
Продолжительность: 01:20:08
Год выпуска: 2014
Перевод: Одноголосый закадровый (Max Nabokov)
Русские субтитры: нет
Режиссёр: Пьер Греко / Pierre Greco
Роли озвучивали: Поль Амарани, Бенуа Бриер, Энн Дорваль, Люк Герен, Гай Джодоин, Гастон Лепаж, Алексис Мартен, Гай Надон, Марилуп Вульф, Ноэми Йелль
Описание: В городке Сан-Виктор царит порядок и процветание, что не может не радовать педантичного мэра. Который ставит благополучие своего городка в заслугу любимому петуху за то, что тот на протяжении семи лет будит своих горожан ровно в 4 утра, тем самым давая им достаточное количество времени везде поспевать в своих делах. Но столь раннее пробуждение под петушиный крик раздражает жителей и они принимают решение передать петуха в соседний городок Сан-Бенуа, обменяв его на осла в надежде, что последний принесет им удачу. Но вместо ожидаемого успеха, городок предается лени, люди бездельничают в праздности проводя своё время. Такое положение вещей весьма огорчает мэра и небольшая команда из его активных почитателей отправляются в Сан-Бенуа, с намерением вернуть петуха обратно.
Семпл: http://multi-up.com/1056851
Качество: BDRip (Le.Coq.De.St.Victor.2014.MULTI.1080p.BluRay.x264.AC3-YaRiSti.mkv)
Формат: AVI
Видео: 720x400 (1.80:1), 23.976 fps, XviD build 50 ~1567 kbps avg, 0.23 bit/pixel
Аудио 1: 48 kHz, AC3 Dolby Digital, 3/2 (L,C,R,l,r) + LFE ch, ~448.00 kbps avg (рус)
Аудио 2: 48 kHz, AC3 Dolby Digital, 3/2 (L,C,R,l,r) + LFE ch, ~448.00 kbps avg (фр)

Подробные технические данные

GeneralComplete name : D:\MOVIE\Le Coq De St Victor 2014.BDRip.(Max Nabokov).aviFormat : AVIFormat/Info : Audio Video InterleaveFile size : 1.35 GiBDuration : 1h 20mnOverall bit rate : 2 420 KbpsWriting application : VirtualDubMod 1.5.10.2 (build 2540/release)Writing library : VirtualDubMod build 2540/release
VideoID : 0Format : MPEG-4 VisualFormat profile : Advanced Simple@L5Format settings, BVOP : 1Format settings, QPel : NoFormat settings, GMC : No warppointsFormat settings, Matrix : Default (H.263)Codec ID : XVIDCodec ID/Hint : XviDDuration : 1h 20mnBit rate : 1 569 KbpsWidth : 720 pixelsHeight : 400 pixelsDisplay aspect ratio : 16:9Frame rate : 23.976 fpsColor space : YUVChroma subsampling : 4:2:0Bit depth : 8 bitsScan type : ProgressiveCompression mode : LossyBits/(Pixel*Frame) : 0.227Stream size : 899 MiB (65%)Writing library : XviD 1.2.1 (UTC 2008-12-04)
Audio #1ID : 1Format : AC-3Format/Info : Audio Coding 3Mode extension : CM (complete main)Format settings, Endianness : BigCodec ID : 2000Duration : 1h 20mnBit rate mode : ConstantBit rate : 192 KbpsChannel(s) : 2 channelsChannel positions : Front: L RSampling rate : 48.0 KHzCompression mode : LossyStream size : 110 MiB (8%)Alignment : Split accross interleavesInterleave, duration : 42 ms (1.00 video frame)Interleave, preload duration : 500 ms
Audio #2ID : 2Format : AC-3Format/Info : Audio Coding 3Mode extension : CM (complete main)Format settings, Endianness : BigCodec ID : 2000Duration : 1h 20mnBit rate mode : ConstantBit rate : 448 KbpsChannel(s) : 6 channelsChannel positions : Front: L C R, Side: L R, LFESampling rate : 48.0 KHzCompression mode : LossyStream size : 257 MiB (19%)Alignment : Split accross interleavesInterleave, duration : 42 ms (1.00 video frame)Interleave, preload duration : 500 ms
Audio #3ID : 3Format : AC-3Format/Info : Audio Coding 3Mode extension : CM (complete main)Format settings, Endianness : BigCodec ID : 2000Duration : 1h 20mnBit rate mode : ConstantBit rate : 192 KbpsChannel(s) : 6 channelsChannel positions : Front: L C R, Side: L R, LFESampling rate : 48.0 KHzCompression mode : LossyStream size : 110 MiB (8%)Alignment : Split accross interleavesInterleave, duration : 42 ms (1.00 video frame)Interleave, preload duration : 500 ms

Скриншоты



Показать сообщения:    

Текущее время: 17-Окт 21:12

Часовой пояс: UTC - 1


Вы не можете начинать темы
Вы не можете отвечать на сообщения
Вы не можете редактировать свои сообщения
Вы не можете удалять свои сообщения
Вы не можете голосовать в опросах
Вы не можете прикреплять файлы к сообщениям
Вы не можете скачивать файлы

!ВНИМАНИЕ!
Сайт не предоставляет электронные версии произведений, а занимается лишь коллекционированием и каталогизацией ссылок, присылаемых и публикуемых на форуме нашими читателями. Если вы являетесь правообладателем какого-либо представленного материала и не желаете, чтобы ссылка на него находилась в нашем каталоге, свяжитесь с нами, и мы незамедлительно удалим ее. Файлы для обмена на трекере предоставлены пользователями сайта, и администрация не несет ответственности за их содержание. Просьба не заливать файлы, защищенные авторскими правами, а также файлы нелегального содержания!