Важное объявление!
У Нас Все раздачи мультитрекерные, при нуле пиров в релизах, можете смело вставать на закачку!
 
Автор Сообщение

HUNTER

Стаж:
4 года 9 месяцев
Сообщений:
65047

Репутация: 101

[+] [-]
Вне форума [Профиль] [ЛС]

Пес из Лас-Вегаса / Ровер Денджерфилд / Rover Dangerfield
Страна: США
Жанр: Мультфильм
Продолжительность: 01:13:35
Год выпуска: 1991
Перевод: Авторский (одноголосый закадровый) - Юрий Живов
Русские субтитры: нет
Режиссёр: Джеймс Л. Джордж, Боб Сили / James L. George, Bob Seeley
Описание: Независимо от оценок художественного уровня или коммерческого успеха мультфильма, который появился на свет исключительно благодаря инициативе актера Родни Дэйнджерфилда, название прелестной мультипликационной ленты будет упоминаться неоднократно и взрослыми (особенно - владельцами собак, и особенно - владельцами бассетов и колли), и детьми, а раз будет упоминаться название фильма - значит, будет произноситься и фамилия Родни. Потому что он дал главному герою, бассету Роверу, свою фамилию и вынес ее в заголовок - 'РОВЕР ДЭЙНДЖЕРФИЛД'.
Обаятельный коротышка-бассет Ровер жил в Лас-Вегасе со своей милой хозяйкой, которая танцевала в одном из варьете города, заслужившего в глазах всего мира титул столицы индустрии развлечений. Любимым занятием Ровера была карточная игра: любой пес в округе мог поучиться у бассета, как тасовать, как передергивать, как разглядеть меченую карту. Наверняка Роверу были знакомы разнообразные шулерские приемы и ухищрения - ничего удивительного: ухажером его хозяйки была темная личность. На свою беду угораздило однажды Ровера подсмотреть за этим неприятным молодым человеком в тот момент, когда тот пытался сбыть какие-то камушки и драгоценности, краденые, скорее всего. Из-за любопытных собачьих глаз и носов крупная сделка сорвалась, и при первом же удобном случае, который подвернулся, когда хозяйка, уехав, поручила милого бассета уголовнику-кавалеру, тот сунул собачку в мешок и сбросил в речку.
Чудо спасло Ровера: его вытащили рыбаки, и спустя некоторое время лопоухий бассет уже очутился на ферме, откуда вознамерился как-нибудь сбежать домой, в Лас-Вегас. Здесь, на ферме, и спать приходилось в тесноте (конечно же, не в доме, а на псарне), и есть предлагали не бифштексы с вырезкой, а непонятной консистенции пойло, которое при ближайшем рассмотрении и на вкус оказалось обыкновенной собачьей едой. Вдобавок ко всему другие псы не проявляли никакого интереса к карточным фокусам, а хозяин-фермер и вовсе то и дело грозился выбросить Ровера, если тот н начнет работать, как остальные.
Близок был час побега, но увидел однажды наш Ровер потрясающей красоты Дэйзи (колли с соседского двора) и понял, что судьба его решена. Что Дэйзи для него даже более желанна, чем бифштекс из рук хозяйки...
Родни Дэйнджерфилд не только сам сочинил сценарий на основе придуманного им же сюжета, не только написал песни для своего героя, не только исполнил их для Дэйзи голосом Ровера, не только нашел деньги для того, чтобы этот мультфильм был создан и увидел свет, но и, разумеется, сам озвучил любимого бассета.
В результате Родни Дэйнджерфилд внес, возможно, свой самый существенный вклад в современное американское кино. За что ему спасибо!
Доп. материалы: отсутствуют
Доп. информация: Русская дорожка взята [url=viewtopic.php?t=98609]отсюда[/url] (VHSRIP)
Семпл: http://multi-up.com/490596
Качество: DVD5 (custom)
Формат: DVD-video
Видео: NTSC 16:9 (720x480) VBR, ~6926 kbps
Аудио 1: Русский (Юрий Живов), AC3, 2/0 (L,R) ch, 192 kbps
Аудио 2: Английский, AC3, 2/0 (L,R) ch, 192 kbps
Субтитры: отсутствуют

DVDInfo

Title: ROVER_DANGERFIELD_DVDSize: 4.02 Gb ( 4 220 356,00 KBytes ) - DVD-5Enabled regions: 1, 2, 3, 4, 5, 6, 7, 8Menu
VTS_01 : Play Length: 01:13:35 Video: NTSC 16:9 (720x480) VBR, Auto Letterboxed Audio: Russian, AC3, 2/0 (L,R) ch, 192 kbps, Delay 0 mSec English, AC3, 2/0 (L,R) ch, 192 kbps, Delay 0 mSec
==========================================================MediaInfo:
GeneralComplete name : F:\FullDisc\ROVER_~1\VIDEO_TS\VTS_01_1.VOBFormat : MPEG-PSFile size : 1 000 MiBDuration : 18mn 45sOverall bit rate : 7 458 Kbps
VideoID : 224 (0xE0)Format : MPEG VideoFormat version : Version 2Format profile : Main@MainFormat settings, BVOP : YesFormat settings, Matrix : DefaultFormat settings, GOP : M=3, N=12Duration : 18mn 45sBit rate mode : VariableBit rate : 6 926 KbpsNominal bit rate : 9 000 KbpsWidth : 720 pixelsHeight : 480 pixelsDisplay aspect ratio : 16:9Frame rate : 23.976 fpsStandard : NTSCColor space : YUVChroma subsampling : 4:2:0Bit depth : 8 bitsScan type : ProgressiveScan order : 2:3 PulldownBits/(Pixel*Frame) : 0.836Stream size : 929 MiB (93%)
Audio #1ID : 128 (0x80)Format : AC-3Format/Info : Audio Coding 3Mode extension : CM (complete main)Duration : 18mn 45sBit rate mode : ConstantBit rate : 192 KbpsChannel(s) : 2 channelsChannel positions : Front: L RSampling rate : 48.0 KHzBit depth : 16 bitsStream size : 25.7 MiB (3%)
Audio #2ID : 129 (0x81)Format : AC-3Format/Info : Audio Coding 3Mode extension : CM (complete main)Duration : 18mn 45sBit rate mode : ConstantBit rate : 192 KbpsChannel(s) : 2 channelsChannel positions : Front: L RSampling rate : 48.0 KHzBit depth : 16 bitsStream size : 25.7 MiB (3%)

Скриншоты меню

Скриншоты

Исходник - dvd из сша, разобрано при помощи PgcDemux, русскую дорожку синхронизировал с английской в WaveLab, собрано в DvdLab Pro 2. По сравнению с оригиналом - убран трейлер, добавлена русская дорожка, меню для выбора дорожек, меню для выбора эпизодов.

_________________
Показать сообщения:    

Текущее время: Сегодня 11:55

Часовой пояс: GMT



Вы не можете начинать темы
Вы не можете отвечать на сообщения
Вы не можете редактировать свои сообщения
Вы не можете удалять свои сообщения
Вы не можете голосовать в опросах
Вы не можете прикреплять файлы к сообщениям
Вы не можете скачивать файлы