Важное объявление!
У Нас Все раздачи мультитрекерные, при нуле пиров в релизах, можете смело вставать на закачку!
 
Автор Сообщение

HUNTER

Стаж:
4 года 9 месяцев
Сообщений:
65004

Репутация: 101

[+] [-]
Вне форума [Профиль] [ЛС]

Песнь моря
Song of the Sea
Страна: Ирландия, Дания, Бельгия, Люксембург, Франция
Жанр: мультфильм, фэнтези, семейный
Продолжительность: 01:33:59
Год выпуска: 2014-Перевод : Любительский (Многоголосый закадровый) CatBug TV
Русские субтитры: нет
Режиссёр: Томм Мур / Tomm Moore-Роли озвучивали: Брендан Глисон, Финола Флэнаган, Пэт Шорт, Дэвид Роул, Лиза Хэннигэн, Джон Кенни-Описание: Море всегда чарует своей природой. О морях сложено немало легенд. Некоторые из них мама рассказывает своим сыну и дочери. Эти легенды передаются из поколения в поколение: в морских водах живут удивительные существа - селки. Это заколдованные люди в образе тюленей. Дети сначала воспринимают историю матери как сказку. Но вскоре выясняется что дочь Сирша оказывается последней представительницей чудесных существ. Она - селки. Детям открываются многие тайны, о которых они раньше и не подозревали.- -Качество: BDRip
Формат: AVI
Видео: 688x368 (1.87:1), 23,976 fps, XviD 66 ~976 kbps avg, 0.16 bit/pixel
Аудио: 48.0 kHz, MPEG Layer 3, 2/0 (L,R) ch, ~128 kbps
Субтитры: отсутствуют

MI

General
Complete name : D:\incarcare\rip gata\Песнь.моря.2014.BDRip[dragomire]_rutracker.org.avi
Format : AVI
Format/Info : Audio Video Interleave
File size : 748 MiB
Duration : 1h 33mn
Overall bit rate : 1 113 Kbps
Writing application : VirtualDubMod 1.5.10.2 (build 2540/release)
Writing library : VirtualDubMod build 2540/release
Video
ID : 0
Format : MPEG-4 Visual
Format profile : Advanced Simple@L5
Format settings, BVOP : 1
Format settings, QPel : No
Format settings, GMC : No warppoints
Format settings, Matrix : Custom
Codec ID : XVID
Codec ID/Hint : XviD
Duration : 1h 33mn
Bit rate : 976 Kbps
Width : 688 pixels
Height : 368 pixels
Display aspect ratio : 1.85:1
Frame rate : 23.976 fps
Color space : YUV
Chroma subsampling : 4:2:0
Bit depth : 8 bits
Scan type : Progressive
Compression mode : Lossy
Bits/(Pixel*Frame) : 0.161
Stream size : 656 MiB (88%)
Writing library : XviD 66
Audio
ID : 1
Format : MPEG Audio
Format version : Version 1
Format profile : Layer 3
Codec ID : 55
Codec ID/Hint : MP3
Duration : 1h 33mn
Bit rate mode : Constant
Bit rate : 128 Kbps
Channel(s) : 2 channels
Sampling rate : 48.0 KHz
Compression mode : Lossy
Stream size : 86.1 MiB (11%)
Alignment : Aligned on interleaves
Interleave, duration : 42 ms (1.00 video frame)
Interleave, preload duratio : 504 ms

Скриншоты


_________________
Показать сообщения:    

Текущее время: Сегодня 08:41

Часовой пояс: GMT



Вы не можете начинать темы
Вы не можете отвечать на сообщения
Вы не можете редактировать свои сообщения
Вы не можете удалять свои сообщения
Вы не можете голосовать в опросах
Вы не можете прикреплять файлы к сообщениям
Вы не можете скачивать файлы