Важное объявление!
У Нас Все раздачи мультитрекерные, при нуле пиров в релизах, можете смело вставать на закачку!
Статистика раздачи
Размер:     |    Зарегистрирован:     |    Скачан:     |   
Нет
 
     
 
 
Автор Сообщение

HUNTER

Стаж:
5 лет
Сообщений:
67968

Репутация: 101

[+] [-]
Вне форума [Профиль] [ЛС]

Персона 3: (Фильм первый) / Persona 3 the Movie 1: Spring of Birth
Страна: Япония
Год выпуска: 2013 г.
Жанр: приключения
Тип: Movie
Продолжительность:полнометражный, 92 мин
Режиссер: Акитая Нориаки
Студия: AIC ASTA
Описание: Жуткие существа скрываются во тьме, охотясь на тех, кто блуждает в скрытый Тёмный час, который лежит между одним днём и следующим. Секретный школьный клуб, известный под названием "SEES", защищает человечество от ужасов и бедствий. Его основная цель - разгадать тайну Тёмного часа раз и навсегда.
Фильм основан на одноименной RPG 2006 года.
Качество: BDRip
Тип релиза: Полухардсаб (русский/надписи+лого)
Формат видео: MKV
Наличие линковки: Нет
Релиз/Автор рипа: CBM
Видео: AVC, 1280x720, 2256 kbps, 23.976fps, 8 bit
Аудио: AC3, 448kbps, 5.1 Язык Русский (в составе контейнера) ; Озвучка: русская двухголосая (М+Ж/Shoker & Kirsy)
Подробные тех. данные
ОбщееУникальный идентификатор : 195930882003481231560379442594699350791 (0x9366EA4F021E976388B2A35853D51307)Полное имя : C:\Загрузки\[LE-Production_&_Jart]_Persona_3_the_Movie_Spring_of_Birth_[BD-Rip]\[LE-Production_&_Jart]_Persona_3_the_Movie_Spring_of_Birth_[BD-Rip].mkvФормат : MatroskaВерсия формата : Version 4 / Version 2Размер файла : 1,90 ГбайтПродолжительность : 1 ч. 38 м.Общий поток : 2759 Кбит/секДата кодирования : UTC 2014-05-29 19:20:26Программа кодирования : mkvmerge v6.4.1 ('Omega Point') built on Sep 16 2013 22:05:10Библиотека кодирования : libebml v1.3.0 + libmatroska v1.4.1
ВидеоИдентификатор : 1Формат : AVCФормат/Информация : Advanced Video CodecПрофиль формата : High@L3.1Параметр CABAC формата : ДаПараметр ReFrames формата : 4 кадраИдентификатор кодека : V_MPEG4/ISO/AVCПродолжительность : 1 ч. 38 м.Битрейт : 2256 Кбит/секШирина : 1280 пикселейВысота : 720 пикселейСоотношение сторон : 16:9Режим частоты кадров : ПостоянныйЧастота кадров : 23,976 кадра/секЦветовое пространство : YUVСубдискретизация насыщенности : 4:2:0Битовая глубина : 8 битТип развёртки : ПрогрессивнаяБит/(Пиксели*Кадры) : 0.102Размер потока : 1,55 Гбайт (82%)Библиотека кодирования : x264 core 130 r2273 b3065e6Настройки программы : cabac=1 / ref=1 / deblock=1:-1:-1 / analyse=0x3:0x3 / me=dia / subme=1 / psy=1 / psy_rd=1.00:0.10 / mixed_ref=0 / me_range=16 / chroma_me=1 / trellis=0 / 8x8dct=1 / cqm=0 / deadzone=21,11 / fast_pskip=1 / chroma_qp_offset=0 / threads=3 / lookahead_threads=1 / sliced_threads=0 / nr=0 / decimate=1 / interlaced=0 / bluray_compat=0 / constrained_intra=0 / bframes=3 / b_pyramid=2 / b_adapt=1 / b_bias=0 / direct=1 / weightb=1 / open_gop=0 / weightp=1 / keyint=250 / keyint_min=23 / scenecut=40 / intra_refresh=0 / rc=crf / mbtree=0 / crf=21.0 / qcomp=0.60 / qpmin=0 / qpmax=69 / qpstep=4 / ip_ratio=1.40 / pb_ratio=1.30 / aq=1:1.00Default : ДаForced : Нет
АудиоИдентификатор : 2Формат : AC-3Формат/Информация : Audio Coding 3Расширение режима : CM (complete main)Параметр Endianness формата : BigИдентификатор кодека : A_AC3Продолжительность : 1 ч. 38 м.Вид битрейта : ПостоянныйБитрейт : 448 Кбит/секКаналы : 6 каналовРасположение каналов : Front: L C R, Side: L R, LFEЧастота : 48,0 КГцБитовая глубина : 16 битМетод сжатия : С потерямиРазмер потока : 316 Мбайт (16%)Язык : RussianDefault : ДаForced : Нет
Скриншоты

_________________
Показать сообщения:    

Текущее время: Сегодня 10:42

Часовой пояс: GMT



Вы не можете начинать темы
Вы не можете отвечать на сообщения
Вы не можете редактировать свои сообщения
Вы не можете удалять свои сообщения
Вы не можете голосовать в опросах
Вы не можете прикреплять файлы к сообщениям
Вы не можете скачивать файлы