Важное объявление!
У Нас Все раздачи мультитрекерные, при нуле пиров в релизах, можете смело вставать на закачку!
Статистика раздачи
Размер:     |    Зарегистрирован:     |    Скачан:     |   
Нет
 
     
 
 
Автор Сообщение

HUNTER

Стаж:
5 лет
Сообщений:
67947

Репутация: 101

[+] [-]
Вне форума [Профиль] [ЛС]

Персона 3 (фильм первый) / Persona 3 the Movie: Spring of Birth-
Страна: Япония
Год выпуска: 2013 г.
Жанр: приключения
Тип: Movie
Продолжительность: 92 мин
Режиссер: Акитая Нориаки
Студия: AIC A.S.T.A.-Описание: Протагонист прибывает на остров Тацуми, где поступает в новую школу и поселяется в общежитие. И тут же начинаются всякие странности: свет по пути от станции метро до общежития отключается, Луна начинает источать странный зелёный свет, улицы заливаются кровью, а все окружающие его люди принимают вид гробов. Спустя некоторое время герой узнаёт про так называемый «Тёмный Час», во время которого на улицы выходят Тени, а в городе появляется огромнейшая башня — Тартар. Вместе со своими одноклассниками он постепенно раскрывает Правду-Качество: BDRip
Тип релиза: Без хардсаба
Формат видео: mkv
Релиз/Автор рипа: Chyuu-Видео: H264, 7 820 Kbps, 1280x720, 23.976 fps, 10 bit
Аудио: JAP, DTS, 1 509 kbps, 48000 Hz, 6ch
Субтитры: ASS, встроенные; Язык субтитров английский; Перевод команды: Chyuu
Субтитры 2: ASS, внешние; Язык субтитров русский;
L Перевод: shika2009
Редактура: Akira
Подробные тех. данные
GeneralUnique ID : 231854890153412537580582235308516995286 (0xAE6DA0A86BE2BA3FA273C509240870D6)Complete name : D:\[Chyuu] Persona 3 The Movie #1 - Spring of Birth [v2][BD 720p][DTS 5.1][BEBB9248].mkvFormat : MatroskaFormat version : Version 4 / Version 2File size : 6.44 GiBDuration : 1h 38mnOverall bit rate : 9 363 KbpsMovie name : [Chyuu] Persona 3 The Movie #1 - Spring of BirthEncoded date : UTC 2014-05-30 00:31:10Writing application : mkvmerge v6.9.1 ('Blue Panther') 32bit built on Apr 18 2014 18:15:44Writing library : libebml v1.3.0 + libmatroska v1.4.1Attachment : Yes / Yes / Yes / Yes / Yes / Yes / Yes / Yes / Yes / Yes / Yes / Yes / Yes / Yes / Yes / Yes / Yes / Yes / Yes / Yes / Yes / Yes / Yes / Yes / Yes / Yes / Yes / Yes / Yes
VideoID : 1Format : AVCFormat/Info : Advanced Video CodecFormat profile : High 10@L4.1Format settings, CABAC : YesFormat settings, ReFrames : 9 framesCodec ID : V_MPEG4/ISO/AVCDuration : 1h 38mnBit rate : 7 668 KbpsWidth : 1 280 pixelsHeight : 720 pixelsDisplay aspect ratio : 16:9Frame rate mode : ConstantFrame rate : 23.976 fpsColor space : YUVChroma subsampling : 4:2:0Bit depth : 10 bitsScan type : ProgressiveBits/(Pixel*Frame) : 0.347Stream size : 5.28 GiB (82%)Title : H.264 (10bit)Writing library : x264 core 142 r2409+42 04be48a tMod [10-bit@all X86_64]Encoding settings : cabac=1 / ref=9 / deblock=1:-3:-3 / analyse=0x3:0x133 / me=umh / subme=10 / psy=1 / fade_compensate=0.75 / psy_rd=1.00:0.20 / mixed_ref=1 / me_range=24 / chroma_me=1 / trellis=2 / 8x8dct=1 / cqm=0 / deadzone=6,6 / fast_pskip=0 / chroma_qp_offset=-3 / threads=12 / lookahead_threads=1 / sliced_threads=0 / nr=0 / decimate=0 / interlaced=0 / bluray_compat=0 / constrained_intra=0 / fgo=0 / bframes=8 / b_pyramid=2 / b_adapt=2 / b_bias=0 / direct=3 / weightb=1 / open_gop=0 / weightp=2 / keyint=250 / keyint_min=23 / scenecut=40 / intra_refresh=0 / rc_lookahead=60 / rc=crf / mbtree=1 / crf=16.0000 / qcomp=0.80 / qpmin=0:0:0 / qpmax=27:27:27 / qpstep=10 / ip_ratio=1.10 / aq=1:1.00 / aq-sensitivity=10.00 / aq-factor=1.00:1.00:1.00 / aq2=0 / aq3=0Language : JapaneseDefault : YesForced : NoMatrix coefficients : BT.709
AudioID : 2Format : DTSFormat/Info : Digital Theater SystemsMode : 16Format settings, Endianness : BigCodec ID : A_DTSDuration : 1h 38mnBit rate mode : ConstantBit rate : 1 509 KbpsChannel(s) : 6 channelsChannel positions : Front: L C R, Side: L R, LFESampling rate : 48.0 KHzBit depth : 24 bitsCompression mode : LossyStream size : 1.04 GiB (16%)Title : DTS 5.1 AudioLanguage : JapaneseDefault : YesForced : No
TextID : 3Format : ASSCodec ID : S_TEXT/ASSCodec ID/Info : Advanced Sub Station AlphaCompression mode : LosslessTitle : EnglishLanguage : EnglishDefault : YesForced : No
Menu00:00:00.000 : en:Prologue00:01:49.943 : en:Opening00:05:06.807 : en:April 6, 200900:10:14.906 : en:April 7, 200900:14:13.800 : en:The Velvet Room00:15:41.816 : en:April 9, 200900:24:51.156 : en:The Velvet Room00:26:15.820 : en:April 17, 200900:28:06.518 : en:April 18, 200900:30:55.937 : en:April 20, 200900:37:55.315 : en:April 25, 200900:43:44.747 : en:May 9, 200900:51:32.673 : en:The Velvet Room00:52:09.001 : en:May 9, 200900:54:37.649 : en:May 18, 200900:55:01.298 : en:May 25, 200900:55:13.936 : en:May 27, 200900:55:25.072 : en:May 29, 200900:55:41.713 : en:May 30, 200900:58:44.688 : en:June 5, 200901:00:42.055 : en:June 6, 200901:04:40.960 : en:June 8, 200901:32:31.460 : en:June 12, 200901:33:51.876 : en:Ending01:37:10.491 : en:Epilogue
СкриншотыОтличия

_________________
Показать сообщения:    

Текущее время: Сегодня 16:52

Часовой пояс: GMT



Вы не можете начинать темы
Вы не можете отвечать на сообщения
Вы не можете редактировать свои сообщения
Вы не можете удалять свои сообщения
Вы не можете голосовать в опросах
Вы не можете прикреплять файлы к сообщениям
Вы не можете скачивать файлы