Ивановский Торрент трекер
Яндекс.Погода
 

[Цитировать]
HUNTER

Перл-Харбор без грифа секретности. 15 минут позора / Pearl Harbour. Declassified. 15 minutes of infamy
Год выпуска: 2012
Страна: США. Military Channel
Жанр: Документальный, война, история
Продолжительность: 00:43:51
Перевод: Одноголосый закадровый
Режиссер: Эрик Нельсон / Erik Nelson
Описание: Происходят события, которые навсегда делят календарь на: «до» и «после». Одним из таких определяющих моментов стал день, который войдет в историю, как символ позора – нападение японцев на Перл-Харбор. Используя самые современные приемы стабилизации изображения, специалисты проводят анализ киноснимков и досконально изучают опустошительные 15 минут начала нападения на Перл-Харбор.
Доп. информация: IPTVRip by alf62 & awas99

качество: IPTVRip
формат: AVI
Видео: 704x400 (1.76:1), 25 fps, DivX, ~1885 kbps avg, 0.27 bit/pixel
Аудио: 48 kHz, MPEG Layer 3, 2 ch, ~128.00 kbps avg

MediaInfo

Perl-Harbor.bez.grifa.sekretnosti.2012.DivX.IPTVRip.alf62.&.awas99.avi
Format : AVI
Format/Info : Audio Video Interleave
File size : 634 MiB
Duration : 43mn 50s
Overall bit rate : 2 023 Kbps
Writing library : Boilsoft Joiner build 2411/release
Video
ID : 0
Format : MPEG-4 Visual
Format profile : Advanced Simple@L5
Format settings, BVOP : 2
Format settings, QPel : No
Format settings, GMC : No warppoints
Format settings, Matrix : Default (MPEG)
Codec ID : DX50
Codec ID/Hint : DivX 5
Duration : 43mn 50s
Bit rate : 1 885 Kbps
Width : 704 pixels
Height : 400 pixels
Display aspect ratio : 16:9
Frame rate : 25.000 fps
Color space : YUV
Chroma subsampling : 4:2:0
Bit depth : 8 bits
Scan type : Progressive
Compression mode : Lossy
Bits/(Pixel*Frame) : 0.268
Stream size : 591 MiB (93%)
Writing library : XviD 73
Audio
ID : 1
Format : MPEG Audio
Format version : Version 1
Format profile : Layer 3
Codec ID : 55
Codec ID/Hint : MP3
Duration : 43mn 50s
Bit rate mode : Constant
Bit rate : 128 Kbps
Channel(s) : 2 channels
Sampling rate : 48.0 KHz
Compression mode : Lossy
Delay relative to video : 16ms
Stream size : 40.1 MiB (6%)
Alignment : Split accross interleaves
Interleave, duration : 40 ms (1.00 video frame)
Interleave, preload duration : 500 ms

Скриншоты


0 человек читают эту тему: 0 пользователей, 0 скрытых пользователей, 0 гостей

Показать сообщения:    

Текущее время: 23-Авг 07:20

Часовой пояс: UTC - 1


Вы не можете начинать темы
Вы не можете отвечать на сообщения
Вы не можете редактировать свои сообщения
Вы не можете удалять свои сообщения
Вы не можете голосовать в опросах
Вы не можете прикреплять файлы к сообщениям
Вы не можете скачивать файлы

!ВНИМАНИЕ!
Сайт не предоставляет электронные версии произведений, а занимается лишь коллекционированием и каталогизацией ссылок, присылаемых и публикуемых на форуме нашими читателями. Если вы являетесь правообладателем какого-либо представленного материала и не желаете, чтобы ссылка на него находилась в нашем каталоге, свяжитесь с нами, и мы незамедлительно удалим ее. Файлы для обмена на трекере предоставлены пользователями сайта, и администрация не несет ответственности за их содержание. Просьба не заливать файлы, защищенные авторскими правами, а также файлы нелегального содержания!