Важное объявление!
У Нас Все раздачи мультитрекерные, при нуле пиров в релизах, можете смело вставать на закачку!
 
Автор Сообщение

HUNTER

Стаж:
4 года 8 месяцев
Сообщений:
62091

Репутация: 101

[+] [-]
Вне форума [Профиль] [ЛС]

Перепутье / Z-Kai: Cross Road / クロスロードСтрана: Япония
Премьера: 25.02.2014
Жанр: повседневность, школа
Тип/Продолжительность: ONA (1 эп.), 2 мин.
Режиссёр: Синкай Макото
Студии: и -Субтитры:
  • русские, софтсаб, внешним файлом от Shift & Timecraft
    перевод: Evafan; редактура: AleX_MytH; оформление: matoi-kun

  • английские, софтсаб, в контейнере от volta_john
Озвучка:
  • двухголосая (жен./муж.), внешним файлом от Trina_D & JAM (AniDub)
-Описание:
Двухминутная музыкальная зарисовка Cross Road снята режиссёром Макото Синкаем по заказу компании Z-Kai, которая занимается подготовкой абитуриентов в японские вузы. Герои фильма — старшеклассница Михо, живущая на отдалённом острове, где не действуют очные подготовительные курсы, и её ровесник Сёта — он, хоть и житель мегаполиса, после школьных уроков подрабатывает допоздна и на традиционные курсы просто не успевает. Для обоих дистанционные занятия по программе Z-Kai стали единственным способом серьёзно подготовиться к вступительным экзаменам в университет.-Информационные ссылки: World Art || AniDB || MAL
-Энкод: volta_john
Качество: WEBRip | Тип видео: Без хардсаба | Формат: MP4
Видео: 1920x1080, 24.000 f/s, H.264, 8 bits, 2 712 Kb/s
Аудио JAP: 44.1 KHz, AAC, 2 channels, 126 Kb/s
Аудио RUS: 48.0 KHz, AAC, 2 channels, 192 Kb/s
-

Подробные тех. данные

Общее
Полное имя : D:\[Flash-Ost]\Anime\Перепутье [Cross Road]\CROSS ROAD ONA (YT 1920x1080 x264 AAC).mp4
Формат : MPEG-4
Профиль формата : Base Media
Идентификатор кодека : isom
Размер файла : 40,4 Мбайт
Продолжительность : 1 м. 59 с.
Общий поток : 2842 Кбит/сек
Программа кодирования : Lavf55.12.100
Видео
Идентификатор : 1
Формат : AVC
Формат/Информация : Advanced Video Codec
Профиль формата : High@L4.0
Параметр CABAC формата : Да
Параметр ReFrames формата : 2 кадры
Параметры GOP формата : M=3, N=12
Идентификатор кодека : avc1
Идентификатор кодека/Информация : Advanced Video Coding
Продолжительность : 1 м. 59 с.
Вид битрейта : Переменный
Битрейт : 2712 Кбит/сек
Ширина : 1920 пикс.
Высота : 1080 пикс.
Соотношение сторон : 16:9
Режим частоты кадров : Переменный
Частота кадров : 24,000 кадр/сек
Минимальная частота кадров : 24,000 кадр/сек
Максимальная частота кадров : 24,390 кадр/сек
Цветовое пространство : YUV
Подвыборка цветности : 4:2:0
Битовая глубина : 8 бит
Тип развёртки : Прогрессивная
Бит/(Пиксели*Кадры) : 0.054
Размер потока : 38,5 Мбайт (95%)
Аудио
Идентификатор : 2
Формат : AAC
Формат/Информация : Advanced Audio Codec
Профиль формата : LC
Идентификатор кодека : 40
Продолжительность : 1 м. 59 с.
Вид битрейта : Постоянный
Битрейт : 126 Кбит/сек
Канал(ы) : 2 канала(ов)
Расположение каналов : Front: L R
Частота : 44,1 КГц
Метод сжатия : С потерями
Размер потока : 1,78 Мбайт (4%)
Текст
Идентификатор : 3
Формат : Timed text
Режим смешивания : sbtl
Идентификатор кодека : tx3g
Продолжительность : 1 м. 55 с.
Вид битрейта : Переменный
Битрейт : 70 бит/сек
Размер потока : 1006 байт (0%)
Язык : English

Скриншоты


-

Отличия

От этой - 1080p.

_________________
Показать сообщения:    

Текущее время: Сегодня 20:17

Часовой пояс: GMT



Вы не можете начинать темы
Вы не можете отвечать на сообщения
Вы не можете редактировать свои сообщения
Вы не можете удалять свои сообщения
Вы не можете голосовать в опросах
Вы не можете прикреплять файлы к сообщениям
Вы не можете скачивать файлы
Наши партнеры: интернет магазин Ивановского трикотажа textilla.ru