Ивановский Торрент трекер
Яндекс.Погода
 

[Цитировать]
HUNTER

Переполох в Гималаях / Lissi und der wilde Kaiser
Страна: Германия
Жанр: Мультфильм, Приключения
Продолжительность: 01:24:43
Год выпуска: 2007
Перевод: Профессиональный (дублированный) - МОСФИЛЬМ-мастер
Русские субтитры: нет
Роли дублировали: Александр Груздев, Александр Рыжков, Ольга Шорохова, Никита Прозоровский, Андрей Ярославцев, Вячеслав Баранов, Денис Беспалый, Дмитрий Филимонов, Пётр Иващенко
Режиссёр: Михаэль Хербиг / Michael Herbig
Описание: Во дворце не жизнь, а сплошная мечта. С утра до вечера все придворные только и делают, что ничего не делают. Император Франц и его женушка Лизи экстравагантная парочка, первые богачи королевства. Чтобы развлечься, они жгут деньги, играют в гольф трюфелями и прикалываются над слугами. В этом королевстве все веселы и довольны. Но однажды случилось невероятное: Лизи похитили! Нашелся же ненормальный! Весь двор во главе с властной матерью Франца и Фельдмаршалом бросается на поиски загадочных похитителей. В обстановке всеобщего аврала лишь трусоватый Франц нащупал нить и распутывает клубок следствия, которое ведет его далеко вглубь Баварии. Всю компанию ждет богатая на события развязка...
Доп. информация:

Качество: BDRip
Формат: AVI
Видео: XviD, 640x272, 23.976fps, 1093kbps
Аудио: MPEG Layer 3, 48000Hz, 128kbps, stereo
Субтитры: нет

MediaInfo

General
Complete name : Perepoloh.V.Gimalaah.2007.D.BDRip.700.MediaClub.CurHaJI.avi
Format : AVI
Format/Info : Audio Video Interleave
File size : 745 MiB
Duration : 1h 24mn
Overall bit rate : 1 230 Kbps
Movie name : Perepoloh.V.Gimalaah.2007.D.BDRip.700.MediaClub.CurHaJI
Writing application : Lavf53.13.0
Writing library : VirtualDub build 35491/release
Video
ID : 0
Format : MPEG-4 Visual
Format profile : Advanced Simple@L5
Format settings, BVOP : 1
Format settings, QPel : No
Format settings, GMC : No warppoints
Format settings, Matrix : Custom
Codec ID : XVID
Codec ID/Hint : XviD
Duration : 1h 24mn
Bit rate : 1 093 Kbps
Width : 640 pixels
Height : 272 pixels
Display aspect ratio : 2.35:1
Frame rate : 23.976 fps
Color space : YUV
Chroma subsampling : 4:2:0
Bit depth : 8 bits
Scan type : Progressive
Compression mode : Lossy
Bits/(Pixel*Frame) : 0.262
Stream size : 662 MiB (89%)
Writing library : XviD 1.2.1 (UTC 2008-12-04)
Audio
ID : 1
Format : MPEG Audio
Format version : Version 1
Format profile : Layer 3
Codec ID : 55
Codec ID/Hint : MP3
Duration : 1h 24mn
Bit rate mode : Constant
Bit rate : 128 Kbps
Channel(s) : 2 channels
Sampling rate : 48.0 KHz
Compression mode : Lossy
Stream size : 77.6 MiB (10%)
Alignment : Split accross interleaves
Interleave, duration : 42 ms (1.00 video frame)
Interleave, preload duration : 500 ms
Writing library : L3.99r
Encoding settings : -m s -V 4 -q 2 -lowpass 17 -b 128

Скриншоты



Показать сообщения:    

Текущее время: 15-Дек 23:41

Часовой пояс: UTC ± 0


Вы не можете начинать темы
Вы не можете отвечать на сообщения
Вы не можете редактировать свои сообщения
Вы не можете удалять свои сообщения
Вы не можете голосовать в опросах
Вы не можете прикреплять файлы к сообщениям
Вы не можете скачивать файлы

!ВНИМАНИЕ!
Сайт не предоставляет электронные версии произведений, а занимается лишь коллекционированием и каталогизацией ссылок, присылаемых и публикуемых на форуме нашими читателями. Если вы являетесь правообладателем какого-либо представленного материала и не желаете, чтобы ссылка на него находилась в нашем каталоге, свяжитесь с нами, и мы незамедлительно удалим ее. Файлы для обмена на трекере предоставлены пользователями сайта, и администрация не несет ответственности за их содержание. Просьба не заливать файлы, защищенные авторскими правами, а также файлы нелегального содержания!