Ивановский Торрент трекер
Яндекс.Погода
 

[Цитировать]
димитри37

Переменная облачность / Heiter bis wolkig
Оригинальное название:Переменная облачность / Heiter bis wolkig
Страна: Германия
Жанр: Драма, мелодрама, комедия
Год выпуска: 2012
Продолжительность: 01:35:22
Перевод: Одноголосый закадровый (Kirill Ivanov)
Субтитры: Русские, SRT (в контейнере MKV)
Режиссер: Марко Петри / Marco Petry
В ролях: Макс Римельт, Анна Фишер, Джессика Шварц, Элиас ЭмБарек, Дитер Тапперт, Йохан фон Бюлов, Стефан Хорнунг, Йоханнес Кинаст, Феликс Фёртлери.
Описание: Лучшие друзья Тим и Кан раз за разом проигрывают нетривиальный сценарий съёма девушек.
Один из друзей рассказывает в каком-нибудь баре о больном друге незнакомой симпатичной девушке, предлагая скрасить «умирающему» его последние дни.
Неизвестно, сколько так могло бы продолжаться, но Тим влюбляется в Мари, одну из девушек "клюнувшую" на россказни парней.
Но у Мари, оказывается, есть сестра Эдда, по-настоящему больная раком. Игра заходит слишком далеко, но Тим никак не решиться открыть сестрам правду...

Качество видео: DVDRip-AVC
Формат видео: MKV
Видео: x264; 720х432 [anamorph 1024x432]; 25 fps; ~2300 kbps
Аудио 1: AC3; 48 kHz; 5.1 (Front: L C R, Side: L R, LFE); 448 kbps | VO (Русский)
Аудио 2: AC3; 48 kHz; 5.1 (Front: L C R, Side: L R, LFE); 448 kbps | Original (Deutsch)

MediaInfo

Общее
Полное имя : Heiter bis wolkig (2012) K_I.mkv
Формат : Matroska
Версия формата : Version 4 / Version 2
Размер файла : 2,15 Гбайт
Продолжительность : 1 ч. 35 м.
Общий поток : 3226 Кбит/сек
Название фильма : Heiter bis wolkig (2012) K_I
Дата кодирования : UTC 2013-08-19 21:19:17
Программа кодирования : mkvmerge v6.2.0 ('Promised Land') built on Apr 28 2013 12:22:01
Библиотека кодирования : libebml v1.3.0 + libmatroska v1.4.0
Видео
Идентификатор : 1
Формат : AVC
Формат/Информация : Advanced Video Codec
Профиль формата : High@L3.1
Параметр CABAC формата : Да
Параметр ReFrames формата : 11 кадров
Идентификатор кодека : V_MPEG4/ISO/AVC
Продолжительность : 1 ч. 35 м.
Битрейт : 2328 Кбит/сек
Ширина : 720 пикселей
Высота : 432 пикселя
Соотношение сторон : 2,40:1
Режим частоты кадров : Постоянный
Частота кадров : 25,000 кадров/сек
Цветовое пространство : YUV
Субдискретизация насыщенности : 4:2:0
Битовая глубина : 8 бит
Тип развёртки : Прогрессивная
Бит/(Пиксели*Кадры) : 0.299
Размер потока : 1,51 Гбайт (70%)
Библиотека кодирования : x264 core 135 r2345 f0c1c53
Настройки программы : cabac=1 / ref=11 / deblock=1:-2:-1 / analyse=0x3:0x133 / me=umh / subme=10 / psy=1 / psy_rd=1.00:0.20 / mixed_ref=1 / me_range=24 / chroma_me=1 / trellis=2 / 8x8dct=1 / cqm=0 / deadzone=21,11 / fast_pskip=1 / chroma_qp_offset=-3 / threads=6 / lookahead_threads=1 / sliced_threads=0 / nr=0 / decimate=1 / interlaced=0 / bluray_compat=0 / constrained_intra=0 / bframes=4 / b_pyramid=2 / b_adapt=2 / b_bias=0 / direct=3 / weightb=1 / open_gop=0 / weightp=2 / keyint=250 / keyint_min=25 / scenecut=40 / intra_refresh=0 / rc_lookahead=60 / rc=2pass / mbtree=1 / bitrate=2328 / ratetol=1.0 / qcomp=0.60 / qpmin=0 / qpmax=69 / qpstep=4 / cplxblur=20.0 / qblur=0.5 / ip_ratio=1.40 / aq=1:1.00
Default : Да
Forced : Нет
Аудио #1
Идентификатор : 2
Формат : AC-3
Формат/Информация : Audio Coding 3
Расширение режима : CM (complete main)
Параметр Endianness формата : Big
Идентификатор кодека : A_AC3
Продолжительность : 1 ч. 35 м.
Вид битрейта : Постоянный
Битрейт : 448 Кбит/сек
Каналы : 6 каналов
Расположение каналов : Front: L C R, Side: L R, LFE
Частота : 48,0 КГц
Битовая глубина : 16 бит
Метод сжатия : С потерями
Размер потока : 306 Мбайт (14%)
Язык : Russian
Default : Да
Forced : Нет
Аудио #2
Идентификатор : 3
Формат : AC-3
Формат/Информация : Audio Coding 3
Расширение режима : CM (complete main)
Параметр Endianness формата : Big
Идентификатор кодека : A_AC3
Продолжительность : 1 ч. 35 м.
Вид битрейта : Постоянный
Битрейт : 448 Кбит/сек
Каналы : 6 каналов
Расположение каналов : Front: L C R, Side: L R, LFE
Частота : 48,0 КГц
Битовая глубина : 16 бит
Метод сжатия : С потерями
Размер потока : 306 Мбайт (14%)
Язык : German
Default : Нет
Forced : Нет
Текст
Идентификатор : 4
Формат : UTF-8
Идентификатор кодека : S_TEXT/UTF8
Идентификатор кодека/Информация : UTF-8 Plain Text
Язык : Russian
Default : Нет
Forced : Нет

Скриншоты



-
Показать сообщения:    

Текущее время: 19-Окт 04:40

Часовой пояс: UTC - 1


Вы не можете начинать темы
Вы не можете отвечать на сообщения
Вы не можете редактировать свои сообщения
Вы не можете удалять свои сообщения
Вы не можете голосовать в опросах
Вы не можете прикреплять файлы к сообщениям
Вы не можете скачивать файлы

!ВНИМАНИЕ!
Сайт не предоставляет электронные версии произведений, а занимается лишь коллекционированием и каталогизацией ссылок, присылаемых и публикуемых на форуме нашими читателями. Если вы являетесь правообладателем какого-либо представленного материала и не желаете, чтобы ссылка на него находилась в нашем каталоге, свяжитесь с нами, и мы незамедлительно удалим ее. Файлы для обмена на трекере предоставлены пользователями сайта, и администрация не несет ответственности за их содержание. Просьба не заливать файлы, защищенные авторскими правами, а также файлы нелегального содержания!