Ивановский Торрент трекер
Яндекс.Погода
 

[Цитировать]
HUNTER

Перелом. Хроника Победы
Год выпуска: 2012
Страна: Россия
Жанр: Документальный
Продолжительность: 12 x ~ 00:24:00
Перевод: Не требуется
Режиссер: Олег Четвериков
Описание: Цикл документальных фильмов, посвященный военным операциям Великой Отечественной войны.
Качество: SATRip
Формат: AVI
Видео: XviD, 640x480, (1.33:1), ~ 1650 kbps avg, 25 fps, 0.21 bit/pixel
Аудио: 48 kHz, MPEG Layer 3, 2 ch, ~128.00 kbps avg
Релиз: Bender

Список выпусков/серий

01. Григорьевский десант
02. Тульская оборонительная операция
03. Тихвинская наступательная операция
04. Клинско-Солнечногорская оборонительная операция
05. Ростовская наступательная операция
06. Наро-Фоминская оборонительная операция
07. Тульская наступательная операция
08. Елецкая наступательная операция
09. Клинско-Солнечногорская наступательная операция
10. Калининская наступательная операция
11. Калужская наступательная операция
12. Керченско-Феодосийская десантная операция

MediaInfo

General
Complete name : D:\Фильмы\Перелом Хроника Победы\01. Григорьевский десант.avi
Format : AVI
Format/Info : Audio Video Interleave
File size : 309 MiB
Duration : 24mn 11s
Overall bit rate : 1 784 Kbps
Writing application : VirtualDubMod 1.5.10.3 | www.virtualdub-fr.org || (build 2550/release)
Writing library : VirtualDubMod build 2550/release
Video
ID : 0
Format : MPEG-4 Visual
Format profile : Advanced Simple@L5
Format settings, BVOP : 1
Format settings, QPel : No
Format settings, GMC : No warppoints
Format settings, Matrix : Default (H.263)
Codec ID : XVID
Codec ID/Hint : XviD
Duration : 24mn 11s
Bit rate : 1 647 Kbps
Width : 640 pixels
Height : 480 pixels
Display aspect ratio : 4:3
Frame rate : 25.000 fps
Color space : YUV
Chroma subsampling : 4:2:0
Bit depth : 8 bits
Scan type : Progressive
Compression mode : Lossy
Bits/(Pixel*Frame) : 0.214
Stream size : 285 MiB (92%)
Writing library : XviD 1.2.1 (UTC 2008-12-04)
Audio
ID : 1
Format : MPEG Audio
Format version : Version 1
Format profile : Layer 3
Codec ID : 55
Codec ID/Hint : MP3
Duration : 24mn 11s
Bit rate mode : Constant
Bit rate : 128 Kbps
Channel(s) : 2 channels
Sampling rate : 48.0 KHz
Compression mode : Lossy
Stream size : 22.2 MiB (7%)
Alignment : Aligned on interleaves
Interleave, duration : 40 ms (1.00 video frame)
Interleave, preload duration : 504 ms
Writing library : LAME3.98r
Encoding settings : -m s -V 4 -q 2 -lowpass 17 -b 128

Скриншоты



Показать сообщения:    

Текущее время: 15-Дек 06:42

Часовой пояс: UTC ± 0


Вы не можете начинать темы
Вы не можете отвечать на сообщения
Вы не можете редактировать свои сообщения
Вы не можете удалять свои сообщения
Вы не можете голосовать в опросах
Вы не можете прикреплять файлы к сообщениям
Вы не можете скачивать файлы

!ВНИМАНИЕ!
Сайт не предоставляет электронные версии произведений, а занимается лишь коллекционированием и каталогизацией ссылок, присылаемых и публикуемых на форуме нашими читателями. Если вы являетесь правообладателем какого-либо представленного материала и не желаете, чтобы ссылка на него находилась в нашем каталоге, свяжитесь с нами, и мы незамедлительно удалим ее. Файлы для обмена на трекере предоставлены пользователями сайта, и администрация не несет ответственности за их содержание. Просьба не заливать файлы, защищенные авторскими правами, а также файлы нелегального содержания!