Важное объявление!
У Нас Все раздачи мультитрекерные, при нуле пиров в релизах, можете смело вставать на закачку!
 
Автор Сообщение

HUNTER

Стаж:
4 года 6 месяцев
Сообщений:
61029

Репутация: 101

[+] [-]
Вне форума [Профиль] [ЛС]

Переломный момент / Break Point
Страна: США
Студия: Broad Green Pictures
Жанр: комедия, спорт
Год выпуска: 2014
Продолжительность: 01:30:50
Перевод: Субтитры kidkong
Cубтитры: русские, английские
Оригинальная аудиодорожка: английский
Режиссер: Джей Карас / Jay Karas
В ролях: Джереми Систо, Дэвид Уолтон, Адам Дивайн, Джошуа Раш, Сай Амундсон, Сара Бэйли, Брэд Бенедикт, Маянк Бхаттер, Кристиан Капалик, Мо Коллинз
Описание: Джимми – 35-летний теннисист, карьера которого идет к закату. Не столько из-за возраста, сколько потому, что он все время пытается ссориться с судьями, соперниками и даже со своим напарником в парном разряде. И вот, когда от него отказывается очередной напарник, его отец предлагает взять на эту роль младшего брата, Ника, в прошлом уже игравшего в паре с Джимми. Но теперь Ник, если и тренируется, то только в свое удовольствие, так как работает учителем в школе. В школах наступила пора летних каникул, поэтому предложение отца не выглядит безнадежно. К этой парочке "приклеивается" один из учеников Ника, которому в летние каникулы некуда податься: папы нет, а мама давно сдала его на попечение бабушки. У мальчика не все ясно в плане самоидентификации, он интуитивно тянется к сильному мужчине, который мог бы стать ему примером.

Sample
Тип релиза: WEB-DL 720p
Контейнер: MKV
Видео: MPEG4 AVC Video, H264, 16:9, 1280x534, 23.976 fps, 3968 kbps
Аудио: English (AC3, 6 ch, 384 kbps, 16 bits, 48.0 KHz) - оригинал
Формат субтитров: softsub (SRT)

MediaInfo

General
Unique ID : 249667139608150654237722758085144893320 (0xBBD4245C15685608AC7A9028F5EE5788)
Complete name : E:\Break Point 2014 WEB-DL 720p.mkv
Format : Matroska
Format version : Version 4 / Version 2
File size : 2.82 GiB
Duration : 1h 30mn
Overall bit rate : 4 440 Kbps
Encoded date : UTC 2015-10-21 02:04:19
Writing application : mkvmerge v6.1.0 ('Old Devil') built on Mar 2 2013 14:32:37
Writing library : libebml v1.3.0 + libmatroska v1.4.0
Video
ID : 1
Format : AVC
Format/Info : Advanced Video Codec
Format profile : Main@L3.1
Format settings, CABAC : No
Format settings, ReFrames : 2 frames
Codec ID : V_MPEG4/ISO/AVC
Duration : 1h 30mn
Bit rate : 3 968 Kbps
Width : 1 280 pixels
Height : 534 pixels
Display aspect ratio : 2.40:1
Frame rate mode : Constant
Frame rate : 23.976 fps
Color space : YUV
Chroma subsampling : 4:2:0
Bit depth : 8 bits
Scan type : Progressive
Bits/(Pixel*Frame) : 0.242
Stream size : 2.52 GiB (89%)
Language : English
Default : Yes
Forced : No
Color primaries : BT.709
Transfer characteristics : BT.709
Matrix coefficients : BT.709
Audio
ID : 2
Format : AC-3
Format/Info : Audio Coding 3
Mode extension : CM (complete main)
Format settings, Endianness : Big
Codec ID : A_AC3
Duration : 1h 30mn
Bit rate mode : Constant
Bit rate : 384 Kbps
Channel count : 6 channels
Channel positions : Front: L C R, Side: L R, LFE
Sampling rate : 48.0 KHz
Bit depth : 16 bits
Compression mode : Lossy
Stream size : 249 MiB (9%)
Language : English
Default : Yes
Forced : No
Text #1
ID : 3
Format : UTF-8
Codec ID : S_TEXT/UTF8
Codec ID/Info : UTF-8 Plain Text
Language : Russian
Default : Yes
Forced : Yes
Text #2
ID : 4
Format : UTF-8
Codec ID : S_TEXT/UTF8
Codec ID/Info : UTF-8 Plain Text
Language : English
Default : No
Forced : No
Menu
00:00:00.000 : en:Chapter 1
00:07:12.000 : en:Chapter 2
00:16:41.000 : en:Chapter 3
00:24:42.000 : en:Chapter 4
00:32:44.000 : en:Chapter 5
00:41:49.000 : en:Chapter 6
00:48:09.000 : en:Chapter 7
00:56:33.000 : en:Chapter 8
01:05:14.000 : en:Chapter 9
01:13:25.000 : en:Chapter 10
01:23:42.000 : en:Chapter 11

Скриншоты


_________________
Показать сообщения:    

Текущее время: Сегодня 00:18

Часовой пояс: GMT



Вы не можете начинать темы
Вы не можете отвечать на сообщения
Вы не можете редактировать свои сообщения
Вы не можете удалять свои сообщения
Вы не можете голосовать в опросах
Вы не можете прикреплять файлы к сообщениям
Вы не можете скачивать файлы
Наши партнеры: интернет магазин Ивановского трикотажа textilla.ru