Ивановский Торрент трекер
Яндекс.Погода
 

[Цитировать]
HUNTER

Передышка / Easy
Страна: США
Студия: Curb Entertainment, Over Easy Productions
Жанр: романтическая трагикомедия
Год выпуска: 2003
Продолжительность: 01:33:44
Перевод: Профессиональный (двухголосый закадровый)
Cубтитры: нет
Оригинальная аудиодорожка: нет
Режиссер: Джейн Вейнсток (Вайнсток) / Jane Weinstock
В ролях: Маргерит Моро, Навин Эндрюс, Брайан Ф.О'Бирн, Эмили Дешанель, Д.Б.Вудсайд, Джон Ротман, Кэролайн Гудолл, Ланетт Уэйр, Анна Элвим, Винсент Энджелл, Роксанн Харт, Том Тодороф
Описание: Маргерит Моро («Жаркое американское лето»), Навин Эндрюс («Невеста и предрассудки»), Эмили Дешанель («Бугимэн: Царство ночных кошмаров»), Нельсон Аспен в романтической комедии Джейн Вейнсток «Передышка». Секс да! Любовь нет! Джэми — молоденькая, сексуальная девушка. После череды любовных неудач, она очень озадачена своей судьбой. Судьба преподносит ей еще один сюрприз: она влюбляется сразу в двух и весьма порядочных мужчин. Оказавшись в любовном треугольнике, ей предстоит сделать правильный выбор!
Бонусы: трейлеры
Меню: анимированное, озвученное, на русском языке

Сэмпл: http://multi-up.com/1041841
Тип релиза: DVD5
Контейнер: DVD-Video
Видео: PAL 4:3 (720x576(0.265)) MPEG Video, 25,000 кадр/сек, 2751 Кбит/сек
Аудио: Russian (Dolby AC3, 6ch) 384 Кбит/сек, 48,0 КГц
Аудио 2: Russian (Dolby AC3, 2ch) 192 Кбит/сек, 48,0 КГц

Доп. информация

Издание «Пiк-Вiдео» («Пик-Видео»)

DVDInfo

Title:
Size: 2.78 Gb ( 2 913 028 KBytes ) - DVD-5
Enabled regions: 1, 2, 3, 4, 5, 6, 7, 8
VTS_01 :
Play Length: 00:02:06
Video: PAL 4:3 (720x576) VBR
Audio:
Russian (Dolby AC3, 2 ch)
Russian (Dolby AC3, 2 ch)
VTS_02 :
Play Length: 01:33:44
Video: PAL 4:3 (720x576) VBR
Audio:
Russian (Dolby AC3, 6 ch)
Russian (Dolby AC3, 2 ch)
VTS_03 :
Play Length: 00:01:55+00:02:17
Video: PAL 4:3 (720x576) VBR
Audio:
Russian (Dolby AC3, 2 ch)
Russian (Dolby AC3, 2 ch)
Menu Video:
PAL 4:3 (720x576) VBR
Menu Subtitles:
Not specified
Menu English Language Unit :
Root Menu
Chapter (PTT) Menu

MediaInfo

General
Complete name : D:\news\Передышка\VIDEO_TS\VTS_02_1.VOB
Format : MPEG-PS
File size : 1 024 MiB
Duration : 42mn 10s
Overall bit rate : 3 395 Kbps
Video
ID : 224 (0xE0)
Format : MPEG Video
Format version : Version 2
Format profile : Main@Main
Format settings, BVOP : Yes
Format settings, Matrix : Default
Format settings, GOP : M=3, N=15
Duration : 42mn 10s
Bit rate mode : Variable
Bit rate : 2 751 Kbps
Nominal bit rate : 8 500 Kbps
Width : 720 pixels
Height : 576 pixels
Display aspect ratio : 4:3
Frame rate : 25.000 fps
Standard : PAL
Color space : YUV
Chroma subsampling : 4:2:0
Bit depth : 8 bits
Scan type : Interlaced
Scan order : Top Field First
Bits/(Pixel*Frame) : 0.265
Stream size : 830 MiB (81%)
Audio #1
ID : 128 (0x80)
Format : AC-3
Format/Info : Audio Coding 3
Mode extension : CM (complete main)
Duration : 42mn 10s
Bit rate mode : Constant
Bit rate : 384 Kbps
Channel(s) : 6 channels
Channel positions : Front: L C R, Side: L R, LFE
Sampling rate : 48.0 KHz
Video delay : -341ms
Stream size : 116 MiB (11%)
Audio #2
ID : 129 (0x81)
Format : AC-3
Format/Info : Audio Coding 3
Mode extension : CM (complete main)
Duration : 42mn 10s
Bit rate mode : Constant
Bit rate : 192 Kbps
Channel(s) : 2 channels
Channel positions : Front: L R
Sampling rate : 48.0 KHz
Stream size : 57.9 MiB (6%)
Menu

Скриншоты меню

Показать сообщения:    

Текущее время: 20-Окт 06:10

Часовой пояс: UTC - 1


Вы не можете начинать темы
Вы не можете отвечать на сообщения
Вы не можете редактировать свои сообщения
Вы не можете удалять свои сообщения
Вы не можете голосовать в опросах
Вы не можете прикреплять файлы к сообщениям
Вы не можете скачивать файлы

!ВНИМАНИЕ!
Сайт не предоставляет электронные версии произведений, а занимается лишь коллекционированием и каталогизацией ссылок, присылаемых и публикуемых на форуме нашими читателями. Если вы являетесь правообладателем какого-либо представленного материала и не желаете, чтобы ссылка на него находилась в нашем каталоге, свяжитесь с нами, и мы незамедлительно удалим ее. Файлы для обмена на трекере предоставлены пользователями сайта, и администрация не несет ответственности за их содержание. Просьба не заливать файлы, защищенные авторскими правами, а также файлы нелегального содержания!