Важное объявление!
У Нас Все раздачи мультитрекерные, при нуле пиров в релизах, можете смело вставать на закачку!
 
Автор Сообщение

HUNTER

Стаж:
4 года 10 месяцев
Сообщений:
65511

Репутация: 101

[+] [-]
Вне форума [Профиль] [ЛС]

Перевод фильмов Ларри Хона: Каркасные Полы и Лестницы, Каркасные Стены, Каркасные Крыши / Larry Haun: Framing Floors and Stairs, Framing Walls, Framing Roofs
Страна: США
Тематика: Строительство домов из деревянного каркаса
Тип раздаваемого материала: Видеоурок
Продолжительность: 1:01:05 / 1:08:49 / 0:53:03
Год выпуска: 1992
Язык: Русский
Перевод: Одноголосый закадровый
Описание: Снятая в средине 90-х, американским популяризатором Лари Хоном, трилогия: "Полы и лестницы", "Стены" и "Крыши". Это самая известная серия фильмов, посвященная каркасному домостроению своими руками.
Данные фильмы являются приложением к книге написанной Лари Хоном "The very efficient carpenter" / "Эффективный плотник".
Упомянутая книга и фильмы (в оригинале на англ.яз.) имеются на трекере.
Вашему вниманию представляется версия с переводом выполненная участником крупнейшего Российского форума самостройщиков ФорумХаус™
Примечания. Терминология. Интересные замечания:
Примечание:
По поводу перевода были высказаны следующие мысли...
Американские COD ы (их обязательные правила) естественно используют дюймовые величины. И размер 50*150, озвучиваемый переводчиком, в действительности 2*6 дюйма. Но это номинальный размер сырой доски после распила, а из сырой доски американцы не строят, кодекс запрещает.
Строить у них положено из сухой доски (специально высушенной). При этом влажность доски опускается ниже чем естественная сушка (в последующем она уже не способна набрать ее, за исключением длительного вымачивания). Сушеная же доска прочнее чем ЕВ (естественной влажности).
После сушки и острожки реальный размер доски 1,5 на 5,5 дюймов, т. е. в метрической системе это 38 на 140 мм. Но для обозначения сечения доски американцы (вот чудаки) используют номинальный размер сырой доски, а не реальный размер сухой строганной доски. Вот такой вот нюанс. Это косвенно подтверждается таблицей 7-1 нашего СП 31-105-2002, в которой минимальное сечение стойки либо 38х38 мм (2х2 дюйма), либо 38х89 (2х4), либо 38х140 (2х6) и т.д.
У нас же нередко выбор сечений ПМ (пиломатериала) затруднителен и автор принял простое решение - использовать размеры сечений наиболее широко встречающихся и используемых ПМ. Причем у нас с сушеными строительными ПМ часто плохо и с наличием и с ценами.
--------------------------
Есть мнение, что копаться в размерах досок - излишне. Фильмы эти по-сути являются ознакомительными и демонстрационными. Библией для нас их сделал информационный вакуум и незнание языков. Человек, который решит ознакомиться с методикой каркасного домостроения при помощи таких переводов - ознакомится с ней. Захочет реализовать на практике - о многом спросит, прочитает и узнает. Фильмы на этой стадии станут пособием не что и из чего делать, а КАК примерно надо делать. Зритель с помощью фильмов получает возможность психологически подготовиться к стройке, проникнуться уверенностью..путём возможности мысленной визуализации тех процессов, что ему предстоят.
Кажется, что Ларри говорит не столько из чего строить, сколько пытается внедрить в умы, что каркасник - это не бином Ньютона, это реально можно сделать самому, и что нужно стараться рационализировать процессы на стройке (этому даже больше внимания уделяется). Что эффективней разложить так, взять такие инструменты, размечать так, пилить так. Тайм-менеджмент, опт.
В общем значимость этих миллиметров для ТЕМЫ невелика.
Еще по терминологии...
В соответствие с СП 31-105-2002
Балки, на которые опирается пол первого этажа (100х150) называются прогоны
Лежни - опорные доски
лаги - балки
обвязная - обвязочная
подъем лестницы - подступенок
Лаги - нужно обратить внимание на то, что в фильме речь идет и о балках, и о лагах. В переводе и то и другое называлось лагами.
С данными мыслями и др. обсуждением Вы можете ознакомиться на ФорумХаус, поиск поможет его найти.
Благодарим за перевод Justin с ФорумХаус™
За качественное видео ко всем трем фильмам благодарим boksito с rutracker.org
Знакомьтесь, изучайте и стройтесь...
Качество: DVDRip-AVC
Формат: MKV
Видео кодек: H.264
Аудио кодек: MP2
Видео: H.264, 704x400 (176:135), 29.97 fps, 2149 Кбит/сек
Аудио1 (руск): MPEG Audio Layer 2 48000Hz stereo, 128 Кбит/сек
Аудио2 (англ): Dolby AC3 48000Hz stereo, 224 Кбит/сек

MediaInfo

Общее
Уникальный идентификатор : 227873712469899070424980483359128515763
(0xAB6EE171856F9D30ABC747F1216974B3)
Полное имя : C:\Users\Рустам\Downloads\1_Ларри Хон
(РАЗДАЧА)\Ларри Хон файлы\1 Каркасные Полы и Лестницы перевод Framing_Floors_and_Stairs.mkv
Формат : Matroska
Версия формата : Version 4 / Version 2
Размер файла : 1,27 Гбайт
Продолжительность : 1 ч. 1 м.
Общий поток : 2978 Кбит/сек
Название фильма : Framing Floors&Stairs-TRU_T02
Дата кодирования : UTC 2013-04-30 20:35:06
Программа кодирования : mkvmerge v6.2.0 ('Promised Land') built on Apr 28
2013 12:22:01
Библиотека кодирования : libebml v1.3.0 + libmatroska v1.4.0
Видео
Идентификатор : 1
Формат : AVC
Формат/Информация : Advanced Video Codec
Профиль формата : High@L3.0
Параметр CABAC формата : Да
Параметр ReFrames формата : 4 кадра
Идентификатор кодека : V_MPEG4/ISO/AVC
Продолжительность : 1 ч. 1 м.
Битрейт : 2567 Кбит/сек
Ширина : 704 пикселя
Высота : 400 пикселей
Соотношение сторон : 4:3
Режим частоты кадров : Постоянный
Частота кадров : 29,970 кадров/сек
Цветовое пространство : YUV
Субдискретизация насыщенности : 4:2:0
Битовая глубина : 8 бит
Тип развёртки : Прогрессивная
Бит/(Пиксели*Кадры) : 0.304
Размер потока : 1,10 Гбайт (86%)
Библиотека кодирования : x264 core 125 r2208 d9d2288
Настройки программы : cabac=1 / ref=3 / deblock=1:0:0 / analyse=0x3:0x133
/ me=hex / subme=5 / psy=1 / psy_rd=1.00:0.00 / mixed_ref=0 / me_range=16 / chroma_me=1 /
trellis=1 / 8x8dct=1 / cqm=0 / deadzone=21,11 / fast_pskip=1 / chroma_qp_offset=0 / threads=3 /
lookahead_threads=1 / sliced_threads=0 / nr=0 / decimate=1 / interlaced=0 / bluray_compat=0 /
constrained_intra=0 / bframes=16 / b_pyramid=2 / b_adapt=1 / b_bias=0 / direct=1 / weightb=0 /
open_gop=0 / weightp=2 / keyint=250 / keyint_min=25 / scenecut=40 / intra_refresh=0 /
rc_lookahead=40 / rc=crf / mbtree=1 / crf=18.0 / qcomp=0.60 / qpmin=0 / qpmax=69 / qpstep=4 /
ip_ratio=1.40 / aq=1:1.00
Default : Да
Forced : Нет
Аудио #1
Идентификатор : 2
Формат : MPEG Audio
Версия формата : Version 1
Профиль формата : Layer 2
Идентификатор кодека : A_MPEG/L2
Идентификатор кодека/Подсказка : MP2
Продолжительность : 1 ч. 1 м.
Вид битрейта : Постоянный
Битрейт : 128 Кбит/сек
Каналы : 2 канала
Частота : 48,0 КГц
Метод сжатия : С потерями
Размер потока : 55,9 Мбайт (4%)
Язык : Russian
Default : Да
Forced : Да
Аудио #2
Идентификатор : 3
Формат : AC-3
Формат/Информация : Audio Coding 3
Расширение режима : CM (complete main)
Параметр Endianness формата : Big
Идентификатор кодека : A_AC3
Продолжительность : 1 ч. 1 м.
Вид битрейта : Постоянный
Битрейт : 224 Кбит/сек
Каналы : 2 канала
Расположение каналов : Front: L R
Частота : 48,0 КГц
Битовая глубина : 16 бит
Метод сжатия : С потерями
Размер потока : 97,9 Мбайт (8%)
Язык : English
Default : Нет
Forced : Нет
Сэмпл: http://multi-up.com/859390

Скриншоты


_________________
Показать сообщения:    

Текущее время: Сегодня 05:45

Часовой пояс: GMT



Вы не можете начинать темы
Вы не можете отвечать на сообщения
Вы не можете редактировать свои сообщения
Вы не можете удалять свои сообщения
Вы не можете голосовать в опросах
Вы не можете прикреплять файлы к сообщениям
Вы не можете скачивать файлы