Важное объявление!
У Нас Все раздачи мультитрекерные, при нуле пиров в релизах, можете смело вставать на закачку!
Статистика раздачи
Размер:     |    Зарегистрирован:     |    Скачан:     |   
Нет
 
     
 
 
Автор Сообщение

HUNTER

Стаж:
5 лет
Сообщений:
67958

Репутация: 101

[+] [-]
Вне форума [Профиль] [ЛС]

Перевал Кассандры / The Cassandra Crossing
Страна: Германия, Италия, Великобритания
Жанр: триллер, драма
Год выпуска: 1976
Продолжительность: 02:08:43
Перевод 1: Профессиональный (многоголосый закадровый) - Амальгама
Перевод 2: Профессиональный (многоголосый закадровый) - ТК Россия
Перевод 3: Профессиональный (двухголосый закадровый) - НТВ
Перевод 4: Профессиональный (многоголосый закадровый) - Екатеринбург Арт
Cубтитры: русские, английские
Оригинальная аудиодорожка: английский-Режиссер: Джордж П. Косматос / George P. Cosmatos-В ролях: Софи Лорен, Ричард Харрис, Берт Ланкастер, Ава Гарднер, Мартин Шин, Ингрид Тулин, О. Дж. Симпсон, Ли Страсберг, Лайонел Стэндер, Энн Тёркел-Описание: Полковник ЦРУ Маккензи узнает, что среди пассажиров трансконтинентального экспресса Женева-Стокгольм скрывается террорист, больной опасной формой легочной чумы, вакцина от которой еще не найдена. Маккензи связывается с единственным врачом в поезде доктором Чемберленом.
Но Чемберлен и его жена Дженнифер находят больного слишком поздно, он успел заразить нескольких пассажиров. Опасаясь возникновения эпидемии, Маккензи решает направить «поезд смерти» к перевалу Кассандры, обрекая всех пассажиров на неминуемую гибель…-Релиз:
by delia-Качество видео: BDRip | Рип от SbR
Формат видео: MKV
Видео: 1280x720 at 24.000 fps (True24p), x264@L4.1, ~10000 kbps avg
Аудио : Dolby Digital Audio Russian 192 kbps 2.0 / 48 kHz / 192 kbps / DN -4dB - Амальгама
Аудио : Dolby Digital Audio Russian 192 kbps 2.0 / 48 kHz / 192 kbps / DN -4dB - ТК Россия
Аудио : Dolby Digital Audio Russian 192 kbps 2.0 / 48 kHz / 192 kbps / DN -4dB - НТВ
Аудио : Dolby Digital Audio Russian 192 kbps 2.0 / 48 kHz / 192 kbps / DN -4dB - Екатеринбург Арт
Аудио : English: 48 kHz, FLAC 2.0, ~353 kbps avg-Скачать сэмпл-Цитата:
Цитата:

  • За дорожки ТК Россия спасибо ruha, за НТВ спасибо dsz и Polinka, за Екатеринбург Арт спасибо Fikaloid.
  • Сохранены оригинальные чаптеры как на Blu-ray.

MI

Код:
Формат                                   : Matroska
Версия формата                           : Version 4 / Version 2
Размер файла                             : 10,0 Гбайт
Продолжительность                        : 2 ч. 8 м.
Режим общего битрейта                    : Переменный
Общий поток                              : 11,1 Мбит/сек
Дата кодирования                         : UTC 2016-04-24 06:13:57
Программа кодирования                    : mkvmerge v9.0.1 ('Obstacles') 64bit
Библиотека кодирования                   : libebml v1.3.3 + libmatroska v1.4.4
Обложка                                  : Yes
Attachments                              : cover.jpg
Видео
Идентификатор                            : 1
Формат                                   : AVC
Формат/Информация                        : Advanced Video Codec
Профиль формата                          : High@L4.1
Параметр CABAC формата                   : Да
Параметр ReFrames формата                : 9 кадров
Идентификатор кодека                     : V_MPEG4/ISO/AVC
Продолжительность                        : 2 ч. 8 м.
Битрейт                                  : 10000 Кбит/сек
Ширина                                   : 1280 пикселей
Высота                                   : 720 пикселей
Соотношение сторон                       : 16:9
Режим частоты кадров                     : Постоянный
Частота кадров                           : 24,000 кадра/сек
Цветовое пространство                    : YUV
Субдискретизация насыщенности            : 4:2:0
Битовая глубина                          : 8 бит
Тип развёртки                            : Прогрессивная
Бит/(Пиксели*Кадры)                      : 0.452
Размер потока                            : 8,99 Гбайт (90%)
Библиотека кодирования                   : x264 core 148 r2692+54 69a6f49 t_mod_Custom [8-bit@all X86_64]
Настройки программы                      : cabac=1 / ref=9 / deblock=1:-3:-3 / analyse=0x3:0x133 / me=umh / subme=10 / psy=1 / fade_compensate=0.00 / psy_rd=1.00:0.05 / mixed_ref=1 / me_range=24 / chroma_me=1 / trellis=2 / 8x8dct=1 / cqm=0 / deadzone=21,11 / fast_pskip=0 / chroma_qp_offset=-3 / threads=6 / lookahead_threads=1 / sliced_threads=0 / nr=0 / decimate=1 / interlaced=0 / bluray_compat=0 / constrained_intra=0 / fgo=0 / bframes=9 / b_pyramid=2 / b_adapt=2 / b_bias=0 / direct=3 / weightb=1 / open_gop=0 / weightp=2 / keyint=250 / keyint_min=24 / scenecut=40 / intra_refresh=0 / rc=2pass / mbtree=0 / bitrate=10000 / ratetol=1.0 / qcomp=0.70 / qpmin=0:0:0 / qpmax=69:69:69 / qpstep=4 / cplxblur=20.0 / qblur=0.5 / ip_ratio=1.30 / pb_ratio=1.20 / aq=3:0.75 / aq-sensitivity=10.00 / aq-factor=1.00:1.00:1.00 / aq2=1:0.70 / aq2-sensitivity=15.00 / aq2-factor=1.00:1.00:1.00 / aq3=3:[0.50:0.50]:[0.50:0.50]:[0.50:0.50]:[0.50:0.50] / aq3-sensitivity=10.00 / aq3-factor=[1.00:1.00]:[1.00:1.00]:[1.00:1.00] / aq3-boundary=192:64:24
Язык                                     : English
Default                                  : Да
Forced                                   : Нет
Цветовой диапазон                        : Limited
Коэффициенты матрицы                     : BT.709
Аудио #1
Идентификатор                            : 2
Формат                                   : AC-3
Формат/Информация                        : Audio Coding 3
Расширение режима                        : CM (complete main)
Параметр Endianness формата              : Big
Идентификатор кодека                     : A_AC3
Продолжительность                        : 2 ч. 8 м.
Вид битрейта                             : Постоянный
Битрейт                                  : 192 Кбит/сек
Каналы                                   : 2 канала
Расположение каналов                     : Front: L R
Частота                                  : 48,0 КГц
Частота кадров                           : 31,250 кадров/сек (1536 spf)
Метод сжатия                             : С потерями
Размер потока                            : 177 Мбайт (2%)
Заголовок                                : Многоголосый закадровый, Амальгама
Язык                                     : Russian
Default                                  : Да
Forced                                   : Нет
Аудио #2
Идентификатор                            : 3
Формат                                   : AC-3
Формат/Информация                        : Audio Coding 3
Расширение режима                        : CM (complete main)
Параметр Endianness формата              : Big
Идентификатор кодека                     : A_AC3
Продолжительность                        : 2 ч. 8 м.
Вид битрейта                             : Постоянный
Битрейт                                  : 192 Кбит/сек
Каналы                                   : 2 канала
Расположение каналов                     : Front: L R
Частота                                  : 48,0 КГц
Частота кадров                           : 31,250 кадров/сек (1536 spf)
Метод сжатия                             : С потерями
Размер потока                            : 177 Мбайт (2%)
Заголовок                                : Многоголосый закадровый, ТК Россия
Язык                                     : Russian
Default                                  : Нет
Forced                                   : Нет
Аудио #3
Идентификатор                            : 4
Формат                                   : AC-3
Формат/Информация                        : Audio Coding 3
Расширение режима                        : CM (complete main)
Параметр Endianness формата              : Big
Идентификатор кодека                     : A_AC3
Продолжительность                        : 2 ч. 8 м.
Вид битрейта                             : Постоянный
Битрейт                                  : 192 Кбит/сек
Каналы                                   : 2 канала
Расположение каналов                     : Front: L R
Частота                                  : 48,0 КГц
Частота кадров                           : 31,250 кадров/сек (1536 spf)
Метод сжатия                             : С потерями
Размер потока                            : 177 Мбайт (2%)
Заголовок                                : Двухголосый закадровый, НТВ
Язык                                     : Russian
Default                                  : Нет
Forced                                   : Нет
Аудио #4
Идентификатор                            : 5
Формат                                   : AC-3
Формат/Информация                        : Audio Coding 3
Расширение режима                        : CM (complete main)
Параметр Endianness формата              : Big
Идентификатор кодека                     : A_AC3
Продолжительность                        : 2 ч. 8 м.
Вид битрейта                             : Постоянный
Битрейт                                  : 192 Кбит/сек
Каналы                                   : 2 канала
Расположение каналов                     : Front: L R
Частота                                  : 48,0 КГц
Частота кадров                           : 31,250 кадров/сек (1536 spf)
Метод сжатия                             : С потерями
Размер потока                            : 177 Мбайт (2%)
Заголовок                                : Многоголосый закадровый, Екатеринбург Арт
Язык                                     : Russian
Default                                  : Нет
Forced                                   : Нет
Аудио #5
Идентификатор                            : 6
Формат                                   : FLAC
Формат/Информация                        : Free Lossless Audio Codec
Идентификатор кодека                     : A_FLAC
Продолжительность                        : 2 ч. 8 м.
Вид битрейта                             : Переменный
Битрейт                                  : 353 Кбит/сек
Каналы                                   : 2 канала
Расположение каналов                     : Front: L R
Частота                                  : 48,0 КГц
Частота кадров                           : 11,719 кадров/сек (4096 spf)
Битовая глубина                          : 16 бит
Размер потока                            : 325 Мбайт (3%)
Библиотека кодирования                   : libFLAC 1.2.1 (UTC 2007-09-17)
Язык                                     : English
Default                                  : Нет
Forced                                   : Нет
Текст #1
Идентификатор                            : 7
Формат                                   : UTF-8
Идентификатор кодека                     : S_TEXT/UTF8
Идентификатор кодека/Информация          : UTF-8 Plain Text
Продолжительность                        : 2 ч. 6 м.
Битрейт                                  : 78 бит/сек
Count of elements                        : 898
Размер потока                            : 72,5 Кбайт (0%)
Язык                                     : Russian
Default                                  : Нет
Forced                                   : Нет
Текст #2
Идентификатор                            : 8
Формат                                   : UTF-8
Идентификатор кодека                     : S_TEXT/UTF8
Идентификатор кодека/Информация          : UTF-8 Plain Text
Продолжительность                        : 2 ч. 3 м.
Битрейт                                  : 42 бит/сек
Count of elements                        : 1108
Размер потока                            : 38,4 Кбайт (0%)
Язык                                     : English
Default                                  : Нет
Forced                                   : Нет
Меню
00:00:00.000                             : en:00:00:00.000
00:09:33.500                             : en:00:09:33.500
00:19:56.625                             : en:00:19:56.625
00:30:24.500                             : en:00:30:24.500
00:40:16.666                             : en:00:40:16.666
00:49:45.250                             : en:00:49:45.250
01:00:36.708                             : en:01:00:36.708
01:08:49.166                             : en:01:08:49.166
01:20:29.500                             : en:01:20:29.500
01:30:55.041                             : en:01:30:55.041
01:41:08.791                             : en:01:41:08.791
01:50:09.666                             : en:01:50:09.666
01:58:51.750                             : en:01:58:51.750

Скриншоты


_________________
Показать сообщения:    

Текущее время: Сегодня 06:47

Часовой пояс: GMT



Вы не можете начинать темы
Вы не можете отвечать на сообщения
Вы не можете редактировать свои сообщения
Вы не можете удалять свои сообщения
Вы не можете голосовать в опросах
Вы не можете прикреплять файлы к сообщениям
Вы не можете скачивать файлы