Важное объявление!
У Нас Все раздачи мультитрекерные, при нуле пиров в релизах, можете смело вставать на закачку!
Статистика раздачи
Размер:     |    Зарегистрирован:     |    Скачан:     |   
Нет
 
     
 
 
Автор Сообщение

HUNTER

Стаж:
5 лет 1 месяц
Сообщений:
68449

Репутация: 101

[+] [-]
Вне форума [Профиль] [ЛС]

Первый рейс к звёздам
Дата/Год выпуска: 1961
Страна: СССР
Жанр: Документальный
Продолжительность: 00:54:33
Перевод: Не требуется
Режиссер: Дмитрий Боголепов, Илья Копалин, Григорий КосенкоОписание: Фильм создан к 22 съезду КПСС и рассказывает о полёте в космос первого землянина - Юрия Гагарина.
Дополнительная информация: правильные пропорции изображения, частично восстановлен звук.
Фильм был создан из оригинальных фильмов:
Вселенная (1951) П. Клушанцев
Дорога к звездам (1957) П. Клушанцев
Земля - Луна (1959) К. Домбровский
Перед прыжком в космос (1960) Виктор Моргенштерн
Человек вернулся из космоса (1961) Е. Вермишева
Сэмпл: SendFile
Качество: DVDRip
Формат: AVI
Видео: 704x568, 5:4, 25 fps, XviD build 50 1408 kbps
Аудио: 48 kHz, AC3 Dolby Digital, 2/0 (L,R) ch, 160.00 kbps

MediaInfo

GeneralComplete name : M:\05. SpaceDust\01.Space\01.USSR\1961 - Первый рейс к звездам DVD\Первый рейс к звёздам.aviFormat : AVIFormat/Info : Audio Video InterleaveFile size : 616 MiBDuration : 54mn 33sOverall bit rate : 1 578 KbpsWriting application : VirtualDubMod 1.5.10.3 | www.virtualdub-fr.org || (build 2550/release)Writing library : VirtualDubMod build 2550/release
VideoID : 0Format : MPEG-4 VisualFormat profile : Advanced Simple@L5Format settings, BVOP : 1Format settings, QPel : NoFormat settings, GMC : No warppointsFormat settings, Matrix : Default (H.263)Codec ID : XVIDCodec ID/Hint : XviDDuration : 54mn 33sBit rate : 1 408 KbpsWidth : 704 pixelsHeight : 568 pixelsDisplay aspect ratio : 5:4Frame rate : 25.000 fpsColor space : YUVChroma subsampling : 4:2:0Bit depth : 8 bitsScan type : ProgressiveCompression mode : LossyBits/(Pixel*Frame) : 0.141Stream size : 549 MiB (89%)Writing library : XviD 1.2.1 (UTC 2008-12-04)
AudioID : 1Format : AC-3Format/Info : Audio Coding 3Mode extension : CM (complete main)Format settings, Endianness : BigCodec ID : 2000Duration : 54mn 33sBit rate mode : ConstantBit rate : 160 KbpsChannel(s) : 2 channelsChannel positions : Front: L RSampling rate : 48.0 KHzBit depth : 16 bitsCompression mode : LossyStream size : 62.4 MiB (10%)Alignment : Split accross interleavesInterleave, duration : 40 ms (1.00 video frame)Interleave, preload duration : 500 ms

Скриншоты


_________________
Показать сообщения:    

Текущее время: Сегодня 23:16

Часовой пояс: GMT



Вы не можете начинать темы
Вы не можете отвечать на сообщения
Вы не можете редактировать свои сообщения
Вы не можете удалять свои сообщения
Вы не можете голосовать в опросах
Вы не можете прикреплять файлы к сообщениям
Вы не можете скачивать файлы