Важное объявление!
У Нас Все раздачи мультитрекерные, при нуле пиров в релизах, можете смело вставать на закачку!
Статистика раздачи
Размер:     |    Зарегистрирован:     |    Скачан:     |   
Нет
 
     
 
 
Автор Сообщение

HUNTER

Стаж:
5 лет
Сообщений:
68391

Репутация: 101

[+] [-]
Вне форума [Профиль] [ЛС]

Первый мститель / Captain America: The First Avenger-
Год выпуска: 2011
Страна: США
Студия: Marvel Entertainment
Жанр: фантастика, боевик, триллер, приключения
Продолжительность: 02:04:12
Перевод: Профессиональный (дублированный)
Cубтитры: русские, украинские, английские-Режиссер: Джо Джонстон / Joe Johnston-В ролях: Крис Эванс (Captain America / Steve Rogers,), Томми Ли Джонс (Colonel Chester Phillips), Хьюго Уивинг (Johann Schmidt / Red Skull), Доминик Купер (Howard Stark), Нил МакДонаф (Timothy 'Dum Dum' Dugan), Дерек Люк (Gabe Jones), Стенли Туччи (Dr. Abraham Erskine), Хейли Этвелл (Peggy Carter), Себастиан Стэн (James Buchanan 'Bucky' Barnes), Ричард Армитэдж (Heinz Kruger), Сэмюэл Л. Джексон (Nick Fury), Тоби Джонс (Dr. Arnim Zola)-
Стив Роджерс добровольно соглашается принять участие в эксперименте, который превратит его в супер солдата, известного как Первый мститель. Роджерс вступает в вооруженные силы США вместе с Баки Барнсом и Пегги Картер, чтобы бороться с враждебной организацией ГИДРА, которой управляет безжалостный Красный Череп.-Тип релиза: BDRip 1080p [CHD]
Контейнер: MKV
Видео кодек: H264
Аудио кодек: AC3, DTS
Видео: AVC, 1920x816 (2.35:1),~12.3 Mbps, 23.976 fps, 0.328 bit/pixel
Аудио: AC3; 640 Kbps; CBR; 6 ch |Russian|
Аудио 2: DTS; 1510 Kbps; CBR; 6 ch; 24 bit |English|
Формат субтитров: SRT-Рейтинг КиноПоиск, IMDb, сэмпл
: (6.510) | : 7.20 (52 798) | MPAA | - Детям до 13 лет просмотр не желателен-

MediaInfo

General
Unique ID : 231119956382875555668727496571077072388 (0xADE015A01C000A61A96D29FDCF2D1604)
Complete name : Cap.America.BDRip.1080p.mkv
Format : Matroska
File size : 12.6 GiB
Duration : 2h 4mn
Overall bit rate : 14.5 Mbps
Encoded date : UTC 2011-10-16 10:05:55
Writing application : mkvmerge v3.3.0 ('Language') сборка от May 14 2010 17:11:50
Writing library : libebml v0.8.0 + libmatroska v0.9.0
Video
ID : 1
Format : AVC
Format/Info : Advanced Video Codec
Format profile : [url=mailto:High@L4.1]High@L4.1[/url]
Format settings, CABAC : Yes
Format settings, ReFrames : 5 frames
Codec ID : V_MPEG4/ISO/AVC
Duration : 2h 4mn
Bit rate : 12.3 Mbps
Width : 1 920 pixels
Height : 816 pixels
Display aspect ratio : 2.35:1
Frame rate : 23.976 fps
Color space : YUV
Chroma subsampling : 4:2:0
Bit depth : 8 bits
Scan type : Progressive
Bits/(Pixel*Frame) : 0.328
Stream size : 10.4 GiB (83%)
Writing library : x264 core 116 r2074 2641b9e
Encoding settings : cabac=1 / ref=5 / deblock=1:-3:-3 / analyse=0x3:0x113 / me=umh / subme=11 / psy=1 / psy_rd=1.05:0.10 / mixed_ref=1 / me_range=48 / chroma_me=1 / trellis=2 / 8x8dct=1 / cqm=2 / deadzone=21,11 / fast_pskip=0 / chroma_qp_offset=-2 / threads=8 / sliced_threads=0 / nr=0 / decimate=1 / interlaced=0 / bluray_compat=0 / constrained_intra=0 / bframes=6 / b_pyramid=2 / b_adapt=2 / b_bias=0 / direct=3 / weightb=1 / open_gop=0 / weightp=2 / keyint=250 / keyint_min=23 / scenecut=40 / intra_refresh=0 / rc_lookahead=60 / rc=2pass / mbtree=1 / bitrate=12322 / ratetol=1.0 / qcomp=0.70 / qpmin=1 / qpmax=63 / qpstep=4 / cplxblur=20.0 / qblur=0.5 / vbv_maxrate=45000 / vbv_bufsize=40000 / nal_hrd=none / ip_ratio=1.40 / aq=2:1.00
Language : English
Audio #1
ID : 2
Format : AC-3
Format/Info : Audio Coding 3
Mode extension : CM (complete main)
Codec ID : A_AC3
Duration : 2h 4mn
Bit rate mode : Constant
Bit rate : 640 Kbps
Channel(s) : 6 channels
Channel positions : Front: L C R, Side: L R, LFE
Sampling rate : 48.0 KHz
Bit depth : 16 bits
Compression mode : Lossy
Stream size : 569 MiB (4%)
Title : AC3.5.1.640kbps.48kHz
Language : Russian
Audio #2
ID : 3
Format : DTS
Format/Info : Digital Theater Systems
Codec ID : A_DTS
Duration : 2h 4mn
Bit rate mode : Constant
Bit rate : 1 510 Kbps
Channel(s) : 6 channels
Channel positions : Front: L C R, Side: L R, LFE
Sampling rate : 48.0 KHz
Bit depth : 24 bits
Compression mode : Lossy
Stream size : 1.31 GiB (10%)
Title : DTS.5.1.24 bits.1509kbps.48kHz
Language : English
Text #1
ID : 4
Format : UTF-8
Codec ID : S_TEXT/UTF8
Codec ID/Info : UTF-8 Plain Text
Language : Russian
Text #2
ID : 5
Format : UTF-8
Codec ID : S_TEXT/UTF8
Codec ID/Info : UTF-8 Plain Text
Language : Ukrainian
Text #3
ID : 6
Format : UTF-8
Codec ID : S_TEXT/UTF8
Codec ID/Info : UTF-8 Plain Text
Language : English

Скриншоты

- -

_________________
Показать сообщения:    

Текущее время: Сегодня 21:54

Часовой пояс: GMT



Вы не можете начинать темы
Вы не можете отвечать на сообщения
Вы не можете редактировать свои сообщения
Вы не можете удалять свои сообщения
Вы не можете голосовать в опросах
Вы не можете прикреплять файлы к сообщениям
Вы не можете скачивать файлы