Ивановский Торрент трекер
Яндекс.Погода
 

[Цитировать]
HUNTER

Первый мститель: Другая войнаCaptain America: The Winter Soldier«In heroes we trust»- Страна: США
Жанр: фантастика, боевик, приключения
Год выпуска: 2014
Продолжительность: 02:15:58-Перевод: Профессиональный (полное дублирование) [Звук с TS]
Субтитры: русские (форсированные, на французскую речь)
Режиссер: Энтони Руссо / Anthony Russo, Джо Руссо / Joe Russo
В ролях: Крис Эванс (Steve Rogers / Captain America), Скарлетт Йоханссон (Natasha Romanoff / Black Widow), Энтони Маки (Sam Wilson / Falcon), Себастьян Стэн (Bucky Barnes / Winter Soldier), Сэмюэл Л. Джексон (Nick Fury), Роберт Редфорд (Alexander Pierce), Фрэнк Грилло (Brock Rumlow), Коби Смолдерс (Maria Hill), Эмили ВанКэмп (Agent 13), Максимилиано Эрнандес (Jasper Sitwell), Хейли Этвелл (Peggy Carter), Тоби Джонс (Dr. Arnim Zola)
Дублёры: Даниил Эльдаров (Steve Rogers / Captain America), Татьяна Шитова (Natasha Romanoff / Black Widow), Алексей Черных (Sam Wilson / Falcon), Илья Бледный (Bucky Barnes / Winter Soldier), Владимир Антоник (Nick Fury), Валерий Сторожик (Alexander Pierce), Андрей Вальц (Brock Rumlow), Наталья Грачева (Maria Hill), Софья Ануфриева (Agent 13), Александр Стефанцов (Jasper Sitwell), Анастасия Жаркова (Peggy Carter), Сергей Балабанов (Dr. Arnim Zola)-Описание: После беспрецедентных событий, впервые собравших вместе команду Мстителей, Стив Роджерс, известный также как Капитан Америка, оседает в Вашингтоне и пытается приспособиться к жизни в современном мире. Но покой этому герою только снится - пытаясь помочь коллеге из агентства Щ. И. Т, Стив оказывается в центре событий, грозящих катастрофой мирового масштаба. Для того, чтобы разоблачить злодейский заговор, Капитан Америка объединяется с Черной вдовой. К ним также присоединяется новый соратник, известный как Сокол, однако никто из них даже не подозревает, на что способен новый враг.-

Доп. информация



MPAA: PG-13 - Детям до 13 лет просмотр не желателен
-Качество: DVDRip
Контейнер: MKV
Сэмпл
Видео: AVC, 720x304 (2.35:1), 1717 kbps, 29,970 fps, 0,262 bpp
Аудио №1: русский / AC3 / 5.1 / 48 kHz / 448 kbps / 16 bit |Дубляж, [Звук с TS]|
Аудио №2: английский / AC3 / 5.1 / 48 kHz / 448 kbps / 16 bit-

Скриншоты

Media Info

General
Unique ID : 233058856263733360691390927680433377624 (0xAF5580C526D6FDF98F88CFE7AE055158)
Complete name : D:\Capitan.2014.Dub.DVDRip-AVC.mkv
Format : Matroska
Format version : Version 4 / Version 2
File size : 2.48 GiB
Duration : 2h 15mn
Overall bit rate : 2 615 Kbps
Encoded date : UTC 2014-07-31 16:09:35
Writing application : mkvmerge v6.6.0 ('The Edge Of The In Between') built on Dec 1 2013 17:55:00
Writing library : libebml v1.3.0 + libmatroska v1.4.1
Video
ID : 1
Format : AVC
Format/Info : Advanced Video Codec
Format profile : High@L4.1
Format settings, CABAC : Yes
Format settings, ReFrames : 5 frames
Codec ID : V_MPEG4/ISO/AVC
Duration : 2h 15mn
Bit rate : 1 717 Kbps
Width : 720 pixels
Height : 304 pixels
Display aspect ratio : 2.35:1
Frame rate : 29.970 fps
Color space : YUV
Chroma subsampling : 4:2:0
Bit depth : 8 bits
Scan type : Progressive
Bits/(Pixel*Frame) : 0.262
Stream size : 1.58 GiB (64%)
Writing library : x264 core 142 r2431 ac76440
Encoding settings : cabac=1 / ref=5 / deblock=1:-1:-1 / analyse=0x3:0x113 / me=umh / subme=8 / psy=1 / psy_rd=1.00:0.15 / mixed_ref=1 / me_range=16 / chroma_me=1 / trellis=1 / 8x8dct=1 / cqm=0 / deadzone=21,11 / fast_pskip=1 / chroma_qp_offset=-3 / threads=12 / lookahead_threads=2 / sliced_threads=0 / nr=0 / decimate=1 / interlaced=0 / bluray_compat=0 / constrained_intra=0 / bframes=3 / b_pyramid=2 / b_adapt=2 / b_bias=0 / direct=3 / weightb=1 / open_gop=0 / weightp=2 / keyint=300 / keyint_min=29 / scenecut=40 / intra_refresh=0 / rc_lookahead=50 / rc=2pass / mbtree=1 / bitrate=1717 / ratetol=1.0 / qcomp=0.60 / qpmin=0 / qpmax=69 / qpstep=4 / cplxblur=20.0 / qblur=0.5 / vbv_maxrate=62500 / vbv_bufsize=78125 / nal_hrd=none / filler=0 / ip_ratio=1.40 / aq=1:1.00
Default : Yes
Forced : No
Audio #1
ID : 2
Format : AC-3
Format/Info : Audio Coding 3
Mode extension : CM (complete main)
Codec ID : A_AC3
Duration : 2h 15mn
Bit rate mode : Constant
Bit rate : 448 Kbps
Channel(s) : 6 channels
Channel positions : Front: L C R, Side: L R, LFE
Sampling rate : 48.0 KHz
Bit depth : 16 bits
Compression mode : Lossy
Stream size : 436 MiB (17%)
Language : Russian
Default : Yes
Forced : No
Audio #2
ID : 3
Format : AC-3
Format/Info : Audio Coding 3
Mode extension : CM (complete main)
Codec ID : A_AC3
Duration : 2h 15mn
Bit rate mode : Constant
Bit rate : 448 Kbps
Channel(s) : 6 channels
Channel positions : Front: L C R, Side: L R, LFE
Sampling rate : 48.0 KHz
Bit depth : 16 bits
Compression mode : Lossy
Stream size : 436 MiB (17%)
Language : English
Default : No
Forced : No
Text
ID : 4
Format : UTF-8
Codec ID : S_TEXT/UTF8
Codec ID/Info : UTF-8 Plain Text
Language : Russian
Default : Yes
Forced : Yes
-Источник:


Показать сообщения:    

Текущее время: 18-Дек 03:23

Часовой пояс: UTC ± 0


Вы не можете начинать темы
Вы не можете отвечать на сообщения
Вы не можете редактировать свои сообщения
Вы не можете удалять свои сообщения
Вы не можете голосовать в опросах
Вы не можете прикреплять файлы к сообщениям
Вы не можете скачивать файлы

!ВНИМАНИЕ!
Сайт не предоставляет электронные версии произведений, а занимается лишь коллекционированием и каталогизацией ссылок, присылаемых и публикуемых на форуме нашими читателями. Если вы являетесь правообладателем какого-либо представленного материала и не желаете, чтобы ссылка на него находилась в нашем каталоге, свяжитесь с нами, и мы незамедлительно удалим ее. Файлы для обмена на трекере предоставлены пользователями сайта, и администрация не несет ответственности за их содержание. Просьба не заливать файлы, защищенные авторскими правами, а также файлы нелегального содержания!