Важное объявление!
У Нас Все раздачи мультитрекерные, при нуле пиров в релизах, можете смело вставать на закачку!
 
Автор Сообщение

HUNTER

Стаж:
4 года 10 месяцев
Сообщений:
65485

Репутация: 101

[+] [-]
Вне форума [Профиль] [ЛС]

Первый дурень на свете и летучий корабль / Летучий корабль / The Fool of the World and the Flying Ship
Страна: Великобритания
Жанр: Сказка
Продолжительность: 00:54:23
Год выпуска: 1990
Перевод: Одноголосый закадровый (Max Nabokov)
Русские субтитры: нет
Режиссёр: Фрэнсис Воус / Francis Vose
Роли озвучивали: Робин Бэйли, Морис Денэм, Джимми Хибберт, Мартин Джарвис, Эдвард Келси, Мириам Маргулис, Алан Ротуэлл, Дэвид Суше, Барбара Уилшир, Barbarah Wilshire...
Описание: По мотивам русской народной сказки...
Семпл: http://multi-up.com/982806
Качество: HDTVRip (источник - The Fool of the World and the Flying Ship.mkv)
Формат: AVI
Видео: 720x528 (1.36:1), 25.000 fps, XviD build 65 ~1697 kbps avg, 0.18 bit/pixel
Аудио: 48 kHz, AC3 Dolby Digital, 2/0 (L,R) ch, ~192.00 kbps avg
Субтитры: отсутствуют
Подробные технические данные
GeneralComplete name : D:\MOVIE\!ТРИЛЛЕРРЫЫ\The Fool of the World and the Flying Ship.aviFormat : AVIFormat/Info : Audio Video InterleaveFile size : 739 MiBDuration : 54mn 22sOverall bit rate : 1 899 KbpsWriting application : VirtualDubMod 1.5.10.2 (build 2542/release)Writing library : VirtualDubMod build 2542/release
VideoID : 0Format : MPEG-4 VisualFormat profile : Advanced Simple@L5Format settings, BVOP : YesFormat settings, QPel : NoFormat settings, GMC : No warppointsFormat settings, Matrix : CustomCodec ID : XVIDCodec ID/Hint : XviDDuration : 54mn 22sBit rate : 1 697 KbpsWidth : 720 pixelsHeight : 528 pixelsDisplay aspect ratio : 4:3Frame rate : 25.000 fpsColor space : YUVChroma subsampling : 4:2:0Bit depth : 8 bitsScan type : ProgressiveCompression mode : LossyBits/(Pixel*Frame) : 0.179Stream size : 660 MiB (89%)Writing library : XviD 65
AudioID : 1Format : AC-3Format/Info : Audio Coding 3Mode extension : CM (complete main)Format settings, Endianness : BigCodec ID : 2000Duration : 54mn 22sBit rate mode : ConstantBit rate : 192 KbpsChannel(s) : 2 channelsChannel positions : Front: L RSampling rate : 48.0 KHzBit depth : 16 bitsCompression mode : LossyDelay relative to video : 27msStream size : 74.7 MiB (10%)Alignment : Split accross interleavesInterleave, duration : 40 ms (1.00 video frame)Interleave, preload duration : 500 ms
Скриншоты

_________________
Показать сообщения:    

Текущее время: Сегодня 15:07

Часовой пояс: GMT



Вы не можете начинать темы
Вы не можете отвечать на сообщения
Вы не можете редактировать свои сообщения
Вы не можете удалять свои сообщения
Вы не можете голосовать в опросах
Вы не можете прикреплять файлы к сообщениям
Вы не можете скачивать файлы