Важное объявление!
У Нас Все раздачи мультитрекерные, при нуле пиров в релизах, можете смело вставать на закачку!
 
Автор Сообщение

HUNTER

Стаж:
4 года 10 месяцев
Сообщений:
65485

Репутация: 101

[+] [-]
Вне форума [Профиль] [ЛС]

Первокурсник / The FreshmanIMDb
Страна: США
Студия: The Harold Lloyd Corporation
Жанр: комедия
Год выпуска: 1925
Продолжительность: 01:16:56
Интертитры: английские
Перевод: Субтитры
Cубтитры: русские (olss с небольшими изменениями и дополнениями)
Аудиодорожка: музыкальное сопровождение Карла Дэвиса
Режиссер: Фред С. Ньюмейер / Fred C. Newmeyer, Сэм Тейлор / Sam Taylor
В ролях: Гарольд Ллойд (Harold Lloyd), Джобина Ралстон (Jobyna Ralston), Брукс Бенедикт (Brooks Benedict), Джеймс Андерсон (James Anderson), Хэйзел Кинер (Hazel Keener), Джозеф Хэррингтон (Joseph Harrington), Пэт Хэрмон (Pat Harmon) и др.
Описание: Гарольд Лэмб мечтает поступить в колледж. Он не догадывается, что там всё далеко не так, как в фильме "Герой колледжа", а потому с первого же дня Гарольд со своими "старомодными манерами" становится объектом насмешек. Чтобы добиться популярности, нужно не только устраивать вечеринки на последние деньги, но и играть в футбольной команде колледжа, а американский футбол – игра не для слабаков!
Сэмпл: https://yadi.sk/i/CYB5Hzaqmfg7M
Тип релиза: BDRip 720p
Контейнер: MKV
Видео: x264 L4.1, 960x720, 23.976 fps, ~12500 kbps [by iNK@CtrlHD]
Аудио 1: DTS, 2.0 ch, 48 kHz, 24 bit, 755 kbps – Orchestral score by Carl Davis
Аудио 2: AC3, 2.0 ch, 48 kHz, 16 bit, 192 kbps – Commentary by Richard Correll, Richard Bann and Leonard Maltin (in english)
Формат субтитров: softsub (SRT)
Навигация по главам: есть

MediaInfo

General
Unique ID : 209684495514664210873365693825219624155 (0x9DBFC3CF148486A3BA4BF0EC5008FCDB)
Complete name : Q:\HD4\The.Freshman.1925.720p.BluRay.DTS.RusSub.x264-CtrlHD.mkv
Format : Matroska
Format version : Version 4 / Version 2
File size : 7.23 GiB
Duration : 1h 16mn
Overall bit rate : 13.4 Mbps
Movie name : The Freshman (1925) with Harold Lloyd
Encoded date : UTC 2016-01-04 16:54:49
Writing application : mkvmerge v8.6.1 ('Flying') 32bit
Writing library : libebml v1.3.3 + libmatroska v1.4.4
Video
ID : 1
Format : AVC
Format/Info : Advanced Video Codec
Format profile : High@L4.1
Format settings, CABAC : Yes
Format settings, ReFrames : 12 frames
Codec ID : V_MPEG4/ISO/AVC
Duration : 1h 16mn
Bit rate : 12.5 Mbps
Width : 960 pixels
Height : 720 pixels
Display aspect ratio : 4:3
Frame rate mode : Constant
Frame rate : 23.976 fps
Color space : YUV
Chroma subsampling : 4:2:0
Bit depth : 8 bits
Scan type : Progressive
Bits/(Pixel*Frame) : 0.754
Stream size : 6.58 GiB (91%)
Title : iNK@CtrlHD
Writing library : x264 core 133 r2334 a3ac64b
Encoding settings : cabac=1 / ref=12 / deblock=1:-3:-3 / analyse=0x3:0x113 / me=tesa / subme=11 / psy=1 / psy_rd=1.00:0.05 / mixed_ref=1 / me_range=24 / chroma_me=1 / trellis=2 / 8x8dct=1 / cqm=0 / deadzone=21,11 / fast_pskip=0 / chroma_qp_offset=-5 / threads=12 / lookahead_threads=2 / sliced_threads=0 / nr=0 / decimate=0 / interlaced=0 / bluray_compat=0 / constrained_intra=0 / bframes=8 / b_pyramid=2 / b_adapt=2 / b_bias=0 / direct=3 / weightb=1 / open_gop=0 / weightp=2 / keyint=250 / keyint_min=23 / scenecut=40 / intra_refresh=0 / rc=2pass / mbtree=0 / bitrate=12500 / ratetol=1.0 / qcomp=0.65 / qpmin=0 / qpmax=69 / qpstep=4 / cplxblur=20.0 / qblur=0.5 / ip_ratio=1.20 / pb_ratio=1.30 / aq=1:0.85
Language : English
Default : Yes
Forced : No
Audio #1
ID : 2
Format : DTS
Format/Info : Digital Theater Systems
Mode : 16
Format settings, Endianness : Big
Codec ID : A_DTS
Duration : 1h 16mn
Bit rate mode : Constant
Bit rate : 755 Kbps
Channel(s) : 2 channels
Channel positions : Front: L R
Sampling rate : 48.0 KHz
Bit depth : 24 bits
Compression mode : Lossy
Stream size : 415 MiB (6%)
Title : Orchestral score by Carl Davis
Language : English
Default : Yes
Forced : No
Audio #2
ID : 3
Format : AC-3
Format/Info : Audio Coding 3
Mode extension : CM (complete main)
Format settings, Endianness : Big
Codec ID : A_AC3
Duration : 1h 16mn
Bit rate mode : Constant
Bit rate : 192 Kbps
Channel(s) : 2 channels
Channel positions : Front: L R
Sampling rate : 48.0 KHz
Compression mode : Lossy
Stream size : 106 MiB (1%)
Title : Commentary by Richard Correll, Richard Bann and Leonard Maltin
Language : English
Default : No
Forced : No
Text
ID : 4
Format : UTF-8
Codec ID : S_TEXT/UTF8
Codec ID/Info : UTF-8 Plain Text
Language : Russian
Default : Yes
Forced : No
Menu
00:00:00.000 : en:00:00:00.000
00:02:17.888 : en:00:02:17.888
00:08:22.043 : en:00:08:22.043
00:14:21.986 : en:00:14:21.986
00:21:15.816 : en:00:21:15.816
00:27:19.513 : en:00:27:19.513
00:36:10.835 : en:00:36:10.835
00:41:32.573 : en:00:41:32.573
00:53:37.631 : en:00:53:37.631
01:02:04.930 : en:01:02:04.930
01:11:51.224 : en:01:11:51.224

Скриншоты


_________________
Показать сообщения:    

Текущее время: Сегодня 15:06

Часовой пояс: GMT



Вы не можете начинать темы
Вы не можете отвечать на сообщения
Вы не можете редактировать свои сообщения
Вы не можете удалять свои сообщения
Вы не можете голосовать в опросах
Вы не можете прикреплять файлы к сообщениям
Вы не можете скачивать файлы