Важное объявление!
У Нас Все раздачи мультитрекерные, при нуле пиров в релизах, можете смело вставать на закачку!
 
Автор Сообщение

HUNTER

Стаж:
4 года 11 месяцев
Сообщений:
66019

Репутация: 101

[+] [-]
Вне форума [Профиль] [ЛС]

Первоклассный товар / Первичный разрез / Prime Cut
Страна: США
Студия: Cinema Center Films
Жанр: боевик, триллер, драма, криминал
Год выпуска: 1972
Продолжительность: 01:26:35-Перевод: Одноголосый закадровый Н. Севастьянов
Cубтитры: английские
Оригинальная аудиодорожка: английская-Режиссер: Майкл Ритчи / Michael Ritchie-В ролях: Ли Марвин, Джин Хэкмен, Сисси Спейсек, Энджел Томпкинс, Грегори Уэлкотт, Джэнит Болдуин-Описание: Стильная драма, затрагивающая такие темы, как работорговля-проституция, нравы американских фермеров и преступный мир Чикаго и Канзаса.-Доп. информация: присутствует навигация по главам-Сэмпл: http://sendfile.su/1215743- -Тип релиза: BDRip 1080p
Контейнер: MKV
Качество: BDRip (исходник: Blu-Ray Remux 1080p)
Видео кодек: H.264
Аудио кодек: AC3, DTS
Видео: 1920x812, 2.35:1, 23.976 (24000/1001) fps, 11.4 Mbps
Аудио 1: русский / AC3, 2.0, 48.0 KHz, 192 Kbps | одноголосный
Аудио 2: английский / DTS, 2.0, 48.0 KHz, 1510 Kbps | оригинал
Формат субтитров: softsub (SRT)

MediaInfo

Формат : Matroska
Версия формата : Version 2
Размер файла : 7,95 Гбайт
Продолжительность : 1 ч. 26 м.
Общий поток : 13,2 Мбит/сек
Дата кодирования : UTC 2016-03-18 18:59:22
Программа кодирования : mkvmerge v7.6.0 ('Garden of Dreams') 32bit built on Feb 11 2015 00:18:47
Библиотека кодирования : libebml v1.3.1 + libmatroska v1.4.2
Видео
Идентификатор : 1
Формат : AVC
Формат/Информация : Advanced Video Codec
Профиль формата : High@L4.1
Параметр CABAC формата : Да
Параметр ReFrames формата : 4 кадра
Идентификатор кодека : V_MPEG4/ISO/AVC
Продолжительность : 1 ч. 26 м.
Битрейт : 11,4 Мбит/сек
Ширина : 1920 пикселей
Высота : 812 пикселей
Соотношение сторон : 2,35:1
Режим частоты кадров : Постоянный
Частота кадров : 23,976 (24000/1001) кадра/сек
Цветовое пространство : YUV
Субдискретизация насыщенности : 4:2:0
Битовая глубина : 8 бит
Тип развёртки : Прогрессивная
Бит/(Пиксели*Кадры) : 0.306
Размер потока : 6,77 Гбайт (85%)
Заголовок : Prime Cut
Библиотека кодирования : x264 core 148 r2638 7599210
Настройки программы : cabac=1 / ref=4 / deblock=1:-2:-2 / analyse=0x3:0x113 / me=umh / subme=9 / psy=1 / psy_rd=1.00:0.15 / mixed_ref=1 / me_range=28 / chroma_me=1 / trellis=1 / 8x8dct=1 / cqm=0 / deadzone=21,11 / fast_pskip=1 / chroma_qp_offset=-3 / threads=6 / lookahead_threads=1 / sliced_threads=0 / nr=0 / decimate=1 / interlaced=0 / bluray_compat=0 / constrained_intra=0 / bframes=3 / b_pyramid=2 / b_adapt=2 / b_bias=0 / direct=1 / weightb=1 / open_gop=0 / weightp=2 / keyint=240 / keyint_min=23 / scenecut=40 / intra_refresh=0 / rc_lookahead=40 / rc=2pass / mbtree=1 / bitrate=11445 / ratetol=1.0 / qcomp=0.60 / qpmin=0 / qpmax=69 / qpstep=4 / cplxblur=20.0 / qblur=0.5 / vbv_maxrate=62500 / vbv_bufsize=78125 / nal_hrd=none / filler=0 / ip_ratio=1.40 / aq=1:1.00
Default : Да
Forced : Нет
Statistics Tags Issue : mkvmerge v8.5.2 ('Crosses') 32bit 2016-03-18 17:42:02 / mkvmerge v7.6.0 ('Garden of Dreams') 32bit built on Feb 11 2015 00:18:47 2016-03-18 18:59:22
FromStats_BitRate : 11445663
FromStats_Duration : 01:26:35.482000000
FromStats_FrameCount : 124567
FromStats_StreamSize : 7433217171
Аудио #1
Идентификатор : 2
Формат : AC-3
Формат/Информация : Audio Coding 3
Расширение режима : CM (complete main)
Параметр Endianness формата : Big
Идентификатор кодека : A_AC3
Продолжительность : 1 ч. 26 м.
Вид битрейта : Постоянный
Битрейт : 192 Кбит/сек
Каналы : 2 канала
Расположение каналов : Front: L R
Частота : 48,0 КГц
Частота кадров : 31,250 кадров/сек (1536 spf)
Метод сжатия : С потерями
Размер потока : 119 Мбайт (1%)
Заголовок : любительский
Язык : Russian
Default : Да
Forced : Нет
Аудио #2
Идентификатор : 3
Формат : DTS
Формат/Информация : Digital Theater Systems
Режим : 16
Параметр Endianness формата : Big
Идентификатор кодека : A_DTS
Продолжительность : 1 ч. 26 м.
Вид битрейта : Постоянный
Битрейт : 1510 Кбит/сек
Каналы : 2 канала
Расположение каналов : Front: L R
Частота : 48,0 КГц
Частота кадров : 93,750 кадра/сек (512 spf)
Битовая глубина : 16 бит
Метод сжатия : С потерями
Размер потока : 935 Мбайт (11%)
Заголовок : оригинал
Язык : English
Default : Нет
Forced : Нет
Текст
Идентификатор : 4
Формат : UTF-8
Идентификатор кодека : S_TEXT/UTF8
Идентификатор кодека/Информация : UTF-8 Plain Text
Заголовок : английские
Язык : English
Default : Нет
Forced : Нет
Меню
00:00:00.000 : :00:00:00.000
00:06:56.165 : :00:06:56.165
00:12:18.571 : :00:12:18.571
00:19:12.901 : :00:19:12.901
00:27:37.821 : :00:27:37.821
00:34:40.494 : :00:34:40.494
00:42:40.641 : :00:42:40.641
00:53:53.771 : :00:53:53.771
01:00:33.378 : :01:00:33.378
01:08:09.501 : :01:08:09.501
01:15:52.797 : :01:15:52.797

log

---[Information] [18.03.2016 11:44:05] raw [info]: 1920x812p 1:1 @ 24000/1001 fps (cfr)
---[Information] [18.03.2016 11:44:05] x264 [info]: using SAR=1/1
---[Information] [18.03.2016 11:44:05] x264 [info]: using cpu capabilities: MMX2 SSE2Fast SSSE3 Cache64 SlowShuffle
---[Information] [18.03.2016 11:44:05] x264 [info]: profile High, level 4.1
---[Information] [18.03.2016 20:41:45] x264 [info]: frame I:1020 Avg QP:16.72 size:172314
---[Information] [18.03.2016 20:41:45] x264 [info]: frame P:41296 Avg QP:18.95 size: 78413
---[Information] [18.03.2016 20:41:45] x264 [info]: frame B:82251 Avg QP:20.26 size: 48866
---[Information] [18.03.2016 20:41:45] x264 [info]: consecutive B-frames: 3.6% 8.3% 50.0% 38.1%
---[Information] [18.03.2016 20:41:45] x264 [info]: mb I I16..4: 5.0% 84.3% 10.7%
---[Information] [18.03.2016 20:41:45] x264 [info]: mb P I16..4: 4.8% 33.7% 3.5% P16..4: 29.8% 18.0% 8.6% 0.0% 0.0% skip: 1.6%
---[Information] [18.03.2016 20:41:45] x264 [info]: mb B I16..4: 1.5% 10.2% 0.7% B16..8: 36.9% 13.4% 3.5% direct:16.6% skip:17.2% L0:40.3% L1:44.5% BI:15.2%
---[Information] [18.03.2016 20:41:45] x264 [info]: 8x8 transform intra:81.0% inter:62.9%
---[Information] [18.03.2016 20:41:45] x264 [info]: coded y,uvDC,uvAC intra: 84.3% 71.1% 28.4% inter: 55.6% 53.2% 2.5%
---[Information] [18.03.2016 20:41:45] x264 [info]: i16 v,h,dc,p: 23% 14% 13% 50%
---[Information] [18.03.2016 20:41:45] x264 [info]: i8 v,h,dc,ddl,ddr,vr,hd,vl,hu: 9% 9% 8% 9% 13% 12% 14% 11% 15%
---[Information] [18.03.2016 20:41:45] x264 [info]: i4 v,h,dc,ddl,ddr,vr,hd,vl,hu: 9% 8% 3% 9% 14% 14% 16% 11% 16%
---[Information] [18.03.2016 20:41:45] x264 [info]: i8c dc,h,v,p: 40% 27% 24% 9%
---[Information] [18.03.2016 20:41:45] x264 [info]: Weighted P-Frames: Y:6.3% UV:1.2%
---[Information] [18.03.2016 20:41:45] x264 [info]: ref P L0: 48.5% 13.1% 20.2% 12.9% 5.1% 0.3%
---[Information] [18.03.2016 20:41:45] x264 [info]: ref B L0: 78.3% 17.2% 4.4%
---[Information] [18.03.2016 20:41:45] x264 [info]: ref B L1: 88.1% 11.9%
---[Information] [18.03.2016 20:41:45] x264 [info]: kb/s:11445.66
---[Information] [18.03.2016 20:41:45] encoded 124567 frames, 3.86 fps, 11445.66 kb/s

Скриншоты


_________________
Показать сообщения:    

Текущее время: Сегодня 07:34

Часовой пояс: GMT



Вы не можете начинать темы
Вы не можете отвечать на сообщения
Вы не можете редактировать свои сообщения
Вы не можете удалять свои сообщения
Вы не можете голосовать в опросах
Вы не можете прикреплять файлы к сообщениям
Вы не можете скачивать файлы