Важное объявление!
У Нас Все раздачи мультитрекерные, при нуле пиров в релизах, можете смело вставать на закачку!
 
Автор Сообщение

HUNTER

Стаж:
4 года 5 месяцев
Сообщений:
60857

Репутация: 101

[+] [-]
Вне форума [Профиль] [ЛС]

Первая полоса / The Front Page-
Страна: США
Год выпуска: 1974
Студия: Universal Pictures
Жанр: Комедия, драма
Продолжительность: 01:44:42
Перевод: есть (профессиональный двухголосый закадровый), позаимствован тут
Оригинальная аудиодорожка: есть (английская)
Cубтитры: есть (английские)
Навигация по главам: есть-Режиссер: Билли Уайлдер / Billy Wilder
Оператор: Джордан Кроненвет / Jordan Cronenweth
В ролях: Джек Леммон, Уолтер Мэттау, Сьюзен Сарандон, Винсент Гардения, Дэвид Уэйн, Аллен Гарфилд и др.

Описание: Третья по счету экранизация блистательной пьесы чикагских экс-репортеров Бена Хекта и Чарльза Макартура.
Удачливый репортер Хилди Джонсон (Джек Леммон) твердо намерен уйти из газеты и жениться на своей возлюбленной Пегги Грант (Сьюзен Сарандон), а редактор Уолтер Бернс (Уолтер Мэттау) намерен репортера удержать, для чего посылает его на последнее - первополосное и скандальное дело.-Тип релиза: BDRip 1080p
Контейнер: MKV
Видео: H.264 / 1920x816 (2.35:1) / 23.976 fps / 12.8 Mbps / High@L4.1
Аудио №1: AC3 / 2.0 / 16 bit / 48 kHz / 192 Kbps / Русский (DVO)
Аудио №2: AC3 / 2.0 / 16 bit / 48 kHz / 640 Kbps / Английский (Original)
Формат субтитров: softsub (SRT)
Аппаратная совместимость: Рип полностью совместим с железными медиаплеерами, проверено на телевизоре Panasonic TX-PR50VT60.

MediaInfo

General
Unique ID : 243503636937597998190145713959721412576 (0xB731183758E45E3C89A2ECADC4FAA7E0)
Complete name : J:\КИНО 4\Первая полоса - The Front Page [BDRip 1080p] (1974)\The.Front.Page.1974.1080p.BDRip.X264.mkv
Format : Matroska
File size : 9.98 GiB
Duration : 1h 44mn
Overall bit rate : 13.6 Mbps
Encoded date : UTC 2015-01-11 12:18:08
Writing application : mkvmerge v6.9.1 ('Blue Panther') 64bit built on Apr 18 2014 18:23:38
Writing library : libebml v1.3.0 + libmatroska v1.4.1
Video
ID : 1
Format : AVC
Format/Info : Advanced Video Codec
Format profile : High@L4.1
Format settings, CABAC : Yes
Format settings, ReFrames : 5 frames
Codec ID : V_MPEG4/ISO/AVC
Duration : 1h 44mn
Bit rate : 12.8 Mbps
Width : 1 920 pixels
Height : 816 pixels
Display aspect ratio : 2.35:1
Frame rate : 23.976 fps
Color space : YUV
Chroma subsampling : 4:2:0
Bit depth : 8 bits
Scan type : Progressive
Bits/(Pixel*Frame) : 0.341
Stream size : 9.17 GiB (92%)
Writing library : x264 core 142 r2431 ac76440
Encoding settings : cabac=1 / ref=5 / deblock=1:-3:-3 / analyse=0x3:0x113 / me=umh / subme=8 / psy=1 / psy_rd=1.00:0.00 / mixed_ref=1 / me_range=16 / chroma_me=1 / trellis=1 / 8x8dct=1 / cqm=0 / deadzone=21,11 / fast_pskip=1 / chroma_qp_offset=-2 / threads=18 / lookahead_threads=3 / sliced_threads=0 / nr=0 / decimate=1 / interlaced=0 / bluray_compat=0 / constrained_intra=0 / bframes=3 / b_pyramid=2 / b_adapt=2 / b_bias=0 / direct=3 / weightb=1 / open_gop=0 / weightp=2 / keyint=240 / keyint_min=24 / scenecut=40 / intra_refresh=0 / rc_lookahead=50 / rc=2pass / mbtree=1 / bitrate=12814 / ratetol=1.0 / qcomp=0.60 / qpmin=0 / qpmax=69 / qpstep=4 / cplxblur=20.0 / qblur=0.5 / ip_ratio=1.40 / aq=1:1.00
Language : English
Audio #1
ID : 2
Format : AC-3
Format/Info : Audio Coding 3
Mode extension : CM (complete main)
Codec ID : A_AC3
Duration : 1h 44mn
Bit rate mode : Constant
Bit rate : 192 Kbps
Channel(s) : 2 channels
Channel positions : Front: L R
Sampling rate : 48.0 KHz
Bit depth : 16 bits
Compression mode : Lossy
Stream size : 144 MiB (1%)
Title : DVO
Language : Russian
Audio #2
ID : 3
Format : AC-3
Format/Info : Audio Coding 3
Mode extension : CM (complete main)
Codec ID : A_AC3
Duration : 1h 44mn
Bit rate mode : Constant
Bit rate : 640 Kbps
Channel(s) : 2 channels
Channel positions : Front: L R
Sampling rate : 48.0 KHz
Bit depth : 16 bits
Compression mode : Lossy
Stream size : 479 MiB (5%)
Title : Original
Language : English
Text
ID : 4
Format : UTF-8
Codec ID : S_TEXT/UTF8
Codec ID/Info : UTF-8 Plain Text
Language : English
Menu
00:00:00.000 : en:00:00:00.000
00:08:32.095 : en:00:08:32.095
00:14:23.362 : en:00:14:23.362
00:21:21.572 : en:00:21:21.572
00:26:54.863 : en:00:26:54.863
00:38:26.763 : en:00:38:26.763
00:50:07.880 : en:00:50:07.880
00:57:52.344 : en:00:57:52.344
01:11:16.481 : en:01:11:16.481
01:21:07.279 : en:01:21:07.279
01:28:51.493 : en:01:28:51.493

Скриншоты

-

Дополнительно

ВСЕ МОИ РАЗДАЧИ

_________________
Показать сообщения:    

Текущее время: Сегодня 00:53

Часовой пояс: GMT



Вы не можете начинать темы
Вы не можете отвечать на сообщения
Вы не можете редактировать свои сообщения
Вы не можете удалять свои сообщения
Вы не можете голосовать в опросах
Вы не можете прикреплять файлы к сообщениям
Вы не можете скачивать файлы
Наши партнеры: интернет магазин Ивановского трикотажа textilla.ru