Ивановский Торрент трекер
Яндекс.Погода
 

[Цитировать]
HUNTER

Первая жизнь / Истоки жизни
David Attenborough's First Life
- Год выпуска: 2010
Страна: Великобритания, BBC
Жанр: документальный
Продолжительность: ~ 2х 00:59:00
Перевод: Одноголосый (закадровый) В.Курдов
Русские субтитры: нет
+ Оригинальная аудиодорожка: Aнглийский-Режиссер: Мартин Уильямс / Martin Williams-Описание: За 50 лет работы на телевидении сэр Дэвид Аттенбро объездил весь земной шар, показывая живой мир во всей его удивительной красоте. Теперь он отправляется в прошлое, к корням дерева жизни, чтобы найти самых первых живых существ, появившихся на нашей планете и попытаться разгадать величайшую загадку появления и развития жизни на Земле. От побережья Ньюфаундленда, окутанного туманом, до пустынь Северной Америки и тропических джунглей Квинсленда Дэвид Аттенбро в фильме "Первая жизнь" ищет доказательство в окаменелостях и животных невероятного периода истории Земли полмиллиарда лет назад, когда животные впервые появились в океанах. От первых глаз, которые видели, до первых хищников, которые убивали, и первых конечностей, которые шагали по суше, это были создания, которые развили черты и приспособления, позволяющие всем животным, даже нам, выживать в наши дни. Это история, которую можно рассказать только сейчас, поскольку найденные за последние несколько лет ошеломляющие окаменелости по всему миру изменили наше понимание самых первых форм жизни, а современная технология позволяет нам воссоздать первых животных и их окружение с помощью фото-реалистичного компьютерного изображения.-Сэмпл | kinopoisk.ru | imdb.com-Качество: HDRip | исх. BDRip 720p ⇒
Формат: AVI
Видео: 704x400 (16:9), 25,000 fps, XviD build 65, ~2153 kbps avg, 0.30 bit/pixel
Аудио# 1: 48.0 kHz, AC3 Dolby Digital, 2/0 (L,R) ch, ~192.00 kbps avg (RUS)
Аудио# 2: 48.0 kHz, AC3 Dolby Digital, 2/0 (L,R) ch, ~192.00 kbps avg (ENG)

Список выпусков/серий

Episode 1: Зарождение / Arrival
Продолжительность: 00:58:59
Первая серия посвящена появлению самых первых живых существ - бактерий и последующей их эволюции, породившей первых же многоклеточных животных. В этой же серии рассказывается о странной группе древних организмов - фрактальных животных, не оставивших по себе потомков среди современной фауны, а также о том, как среди этих причудливых созданий появились существа, ставшие прообразом всех современных живых существ.-Episode 2: Завоевание / Conquest
Продолжительность: 00:58:58
Вторая серия рассказывает о времени Кембрийского взрыва разнообразия жизни, когда эволюция всего живого происходила удивительно быстро. Это время появления предков всех групп современных животных. Также в этой серии подробный рассказ об огромной группе вымерших членистоногих - трилобитах и о первых животных, выбравшихся на сушу и освоивших полёт.

MediaInfo

ОбщееПолное имя : A:\Фильмы\Первая жизнь.Истоки жизни\First.Life.Ep1.Arrival.aviФормат : AVIФормат/Информация : Audio Video InterleaveРазмер файла : 1,05 ГбайтПродолжительность : 58 м.Общий поток : 2552 Кбит/секПрограмма кодирования : VirtualDubMod 1.5.10.2 (build 2540/release)Библиотека кодирования : VirtualDubMod build 2540/release
ВидеоИдентификатор : 0Формат : MPEG-4 VisualПрофиль формата : Advanced Simple@L5Параметр BVOP формата : 1Параметр QPel формата : НетПараметр GMC формата : Без точки переходаПараметр матрицы формата : ВыборочнаяИдентификатор кодека : XVIDИдентификатор кодека/Подсказка : XviDПродолжительность : 58 м.Битрейт : 2153 Кбит/секШирина : 704 пикселяВысота : 400 пикселейСоотношение сторон : 16:9Частота кадров : 25,000 кадров/секЦветовое пространство : YUVСубдискретизация насыщенности : 4:2:0Битовая глубина : 8 битТип развёртки : ПрогрессивнаяМетод сжатия : С потерямиБит/(Пиксели*Кадры) : 0.306Размер потока : 908 Мбайт (84%)Библиотека кодирования : XviD 65
Аудио #1Идентификатор : 1Формат : AC-3Формат/Информация : Audio Coding 3Расширение режима : CM (complete main)Параметр Endianness формата : BigИдентификатор кодека : 2000Продолжительность : 58 м.Вид битрейта : ПостоянныйБитрейт : 192 Кбит/секКаналы : 2 каналаРасположение каналов : Front: L RЧастота : 48,0 КГцБитовая глубина : 16 битМетод сжатия : С потерямиРазмер потока : 81,0 Мбайт (8%)Выравнивание : Разделение по промежуткамПродолжительность промежутка : 40 мс. (1,00 видеокадр)Время предзагрузки промежутка : 500 мс.
Аудио #2Идентификатор : 2Формат : AC-3Формат/Информация : Audio Coding 3Расширение режима : CM (complete main)Параметр Endianness формата : BigИдентификатор кодека : 2000Продолжительность : 58 м.Вид битрейта : ПостоянныйБитрейт : 192 Кбит/секКаналы : 2 каналаРасположение каналов : Front: L RЧастота : 48,0 КГцБитовая глубина : 16 битМетод сжатия : С потерямиРазмер потока : 81,0 Мбайт (8%)Выравнивание : Разделение по промежуткамПродолжительность промежутка : 40 мс. (1,00 видеокадр)Время предзагрузки промежутка : 500 мс.
ОбщееПолное имя : A:\Фильмы\Первая жизнь.Истоки жизни\First.Life.Ep2.Conquest.aviФормат : AVIФормат/Информация : Audio Video InterleaveРазмер файла : 1,05 ГбайтПродолжительность : 58 м.Общий поток : 2549 Кбит/секПрограмма кодирования : VirtualDubMod 1.5.10.2 (build 2540/release)Библиотека кодирования : VirtualDubMod build 2540/release
ВидеоИдентификатор : 0Формат : MPEG-4 VisualПрофиль формата : Advanced Simple@L5Параметр BVOP формата : 1Параметр QPel формата : НетПараметр GMC формата : Без точки переходаПараметр матрицы формата : ВыборочнаяИдентификатор кодека : XVIDИдентификатор кодека/Подсказка : XviDПродолжительность : 58 м.Битрейт : 2151 Кбит/секШирина : 704 пикселяВысота : 400 пикселейСоотношение сторон : 16:9Частота кадров : 25,000 кадров/секЦветовое пространство : YUVСубдискретизация насыщенности : 4:2:0Битовая глубина : 8 битТип развёртки : ПрогрессивнаяМетод сжатия : С потерямиБит/(Пиксели*Кадры) : 0.306Размер потока : 907 Мбайт (84%)Библиотека кодирования : XviD 65
Аудио #1Идентификатор : 1Формат : AC-3Формат/Информация : Audio Coding 3Расширение режима : CM (complete main)Параметр Endianness формата : BigИдентификатор кодека : 2000Продолжительность : 58 м.Вид битрейта : ПостоянныйБитрейт : 192 Кбит/секКаналы : 2 каналаРасположение каналов : Front: L RЧастота : 48,0 КГцБитовая глубина : 16 битМетод сжатия : С потерямиРазмер потока : 81,0 Мбайт (8%)Выравнивание : Разделение по промежуткамПродолжительность промежутка : 40 мс. (1,00 видеокадр)Время предзагрузки промежутка : 500 мс.
Аудио #2Идентификатор : 2Формат : AC-3Формат/Информация : Audio Coding 3Расширение режима : CM (complete main)Параметр Endianness формата : BigИдентификатор кодека : 2000Продолжительность : 58 м.Вид битрейта : ПостоянныйБитрейт : 192 Кбит/секКаналы : 2 каналаРасположение каналов : Front: L RЧастота : 48,0 КГцБитовая глубина : 16 битМетод сжатия : С потерямиРазмер потока : 81,0 Мбайт (8%)Выравнивание : Разделение по промежуткамПродолжительность промежутка : 40 мс. (1,00 видеокадр)Время предзагрузки промежутка : 500 мс.

Скриншоты


Показать сообщения:    

Текущее время: 20-Сен 10:04

Часовой пояс: UTC - 1


Вы не можете начинать темы
Вы не можете отвечать на сообщения
Вы не можете редактировать свои сообщения
Вы не можете удалять свои сообщения
Вы не можете голосовать в опросах
Вы не можете прикреплять файлы к сообщениям
Вы не можете скачивать файлы

!ВНИМАНИЕ!
Сайт не предоставляет электронные версии произведений, а занимается лишь коллекционированием и каталогизацией ссылок, присылаемых и публикуемых на форуме нашими читателями. Если вы являетесь правообладателем какого-либо представленного материала и не желаете, чтобы ссылка на него находилась в нашем каталоге, свяжитесь с нами, и мы незамедлительно удалим ее. Файлы для обмена на трекере предоставлены пользователями сайта, и администрация не несет ответственности за их содержание. Просьба не заливать файлы, защищенные авторскими правами, а также файлы нелегального содержания!