Ивановский Торрент трекер
Яндекс.Погода
 

[Цитировать]
HUNTER

Певец джаза / The Jazz Singer- Год выпуска: 1927
Страна: США
Жанр: драма
Продолжительность: 01:36:14
Перевод: Субтитры
Оригинальная аудиодорожка: Английская
Cубтитры: Русские (olss), английские (для слабослышащих), французские, испанские (x2), португальские, польские-Режиссер: Алан Кросланд / Alan Crosland)
В ролях: Эл Джолсон, Мэй МакЭвой, Уорнер Оланд, Юджин Бессерер, Отто Ледерер, Роберт Гордон, Ричард Такер, Кантор Джозефф Розенблатт, Джейн Арден-Описание:
6 октября 1927 года — день премьеры «Певца Джаза» — принято считать днём рождения звукового кино.
Фильм рассказывает о сыне певчего в церкви, мечтающего стать певцом джаза. Ему помогает звезда комедии и песен в стиле сок, которая его любит и двигает его карьеру вперед. Отец ожидает, что сын пойдет по его стопам, но у того на уме только шоу-бизнес. Он порывает с отцом и едет в Нью-Йорк, чтобы сделать карьеру.- | IMDb | Сэмпл-Качество: BDRip 720p (EbP)
Контейнер: MKV
Видео: x264, 952x720 (1.33:1), 23.976 fps, 6116 kbps
Аудио 1: Английский AС3, 1.0, 48 kHz, 192 kbps
Аудио 2: Английский FLAC 1.0, 48 kHz, 237 kbps
Аудио 3: Английский AC3 2.0, 48 kHz, 192 kbps — Комментарии
Формат субтитров: softsub (SRT)
Скриншоты

Source | EbP


MI
nfo
Release Information
RELEASE NAME..: The Jazz Singer 1927 720p BluRay FLAC x264 EbP
RELEASE DATE..: Jan 27 2012
RUNTiME.......: 1h:36mn
SiZE..........: 4.48 Gib
ViDEO CODEC...: x264, CRF, L4.1
FRAMERATE.....: 23.976 fps
BiTRATE.......: 6116 Kbps (avg.)
RESOLUTiON....: 952x720
AUDiO.........: FLAC 1.0 @ 237Kbps
AUDiO 2.......: Commentary AC3 2.0 @ 192Kbps
SUBTiTLES.....: Eng, Fre, Spa (Castilian), Spa (Latin American), Por, Pol (.srt)
CHAPTER.......: Yes
SOURCE........: The Jazz Singer 1927 1080p Blu-ray AVC DTS-HD MA 1.0
General
Unique ID : 209395737483963655700570165703961143193 (0x9D8826F0561A08E48464EBE0C386E799)
Complete name : The Jazz Singer 1927 720p BluRay x264 EbP.mkv
Format : Matroska
Format version : Version 2
File size : 4.61 GiB
Duration : 1h 36mn
Overall bit rate mode : Variable
Overall bit rate : 6 863 Kbps
Movie name : The Jazz Singer / Певец Джаза (1927) – RuTracker
Encoded date : UTC 2014-05-17 09:02:29
Writing application : mkvmerge v6.1.0 ('Old Devil') built on Mar 2 2013 14:32:37
Writing library : libebml v1.3.0 + libmatroska v1.4.0
Attachment : Yes
Video
ID : 1
Format : AVC
Format/Info : Advanced Video Codec
Format profile : High@L4.1
Format settings, CABAC : Yes
Format settings, ReFrames : 12 frames
Codec ID : V_MPEG4/ISO/AVC
Duration : 1h 36mn
Width : 952 pixels
Height : 720 pixels
Display aspect ratio : 4:3
Frame rate mode : Constant
Frame rate : 23.976 fps
Color space : YUV
Chroma subsampling : 4:2:0
Bit depth : 8 bits
Scan type : Progressive
Title : The Jazz Singer 1927 720p BluRay FLAC x264 EbP
Writing library : x264 core 129 r2245 bc13772
Encoding settings : cabac=1 / ref=12 / deblock=1:-3:-3 / analyse=0x3:0x113 / me=tesa / subme=9 / psy=1 / psy_rd=0.95:0.00 / mixed_ref=1 / me_range=16 / chroma_me=1 / trellis=2 / 8x8dct=1 / cqm=0 / deadzone=21,11 / fast_pskip=0 / chroma_qp_offset=-2 / threads=12 / lookahead_threads=2 / sliced_threads=0 / nr=0 / decimate=0 / interlaced=0 / bluray_compat=0 / constrained_intra=0 / bframes=10 / b_pyramid=2 / b_adapt=2 / b_bias=0 / direct=3 / weightb=1 / open_gop=0 / weightp=2 / keyint=250 / keyint_min=23 / scenecut=40 / intra_refresh=0 / rc=crf / mbtree=0 / crf=17.5 / qcomp=0.65 / qpmin=0 / qpmax=69 / qpstep=4 / ip_ratio=1.40 / pb_ratio=1.30 / aq=1:0.55
Language : English
Default : Yes
Forced : No
Matrix coefficients : BT.709
Audio #1
ID : 2
Format : AC-3
Format/Info : Audio Coding 3
Mode extension : CM (complete main)
Format settings, Endianness : Big
Codec ID : A_AC3
Duration : 1h 36mn
Bit rate mode : Constant
Bit rate : 192 Kbps
Channel(s) : 1 channel
Channel positions : Front: C
Sampling rate : 48.0 KHz
Bit depth : 16 bits
Compression mode : Lossy
Stream size : 132 MiB (3%)
Language : English
Default : Yes
Forced : No
Audio #2
ID : 3
Format : FLAC
Format/Info : Free Lossless Audio Codec
Codec ID : A_FLAC
Duration : 1h 36mn
Bit rate mode : Variable
Channel(s) : 1 channel
Sampling rate : 48.0 KHz
Bit depth : 16 bits
Writing library : libFLAC 1.2.1 (UTC 2007-09-17)
Language : English
Default : No
Forced : No
Audio #3
ID : 4
Format : AC-3
Format/Info : Audio Coding 3
Mode extension : CM (complete main)
Format settings, Endianness : Big
Codec ID : A_AC3
Duration : 1h 36mn
Bit rate mode : Constant
Bit rate : 192 Kbps
Channel(s) : 2 channels
Channel positions : Front: L R
Sampling rate : 48.0 KHz
Bit depth : 16 bits
Compression mode : Lossy
Stream size : 132 MiB (3%)
Title : Commentary
Language : English
Default : No
Forced : No
Text #1
ID : 5
Format : UTF-8
Codec ID : S_TEXT/UTF8
Codec ID/Info : UTF-8 Plain Text
Title : olss
Language : Russian
Default : Yes
Forced : No
Text #2
ID : 6
Format : UTF-8
Codec ID : S_TEXT/UTF8
Codec ID/Info : UTF-8 Plain Text
Title : English
Language : English
Default : No
Forced : No
Text #3
ID : 7
Format : UTF-8
Codec ID : S_TEXT/UTF8
Codec ID/Info : UTF-8 Plain Text
Title : French
Language : French
Default : No
Forced : No
Text #4
ID : 8
Format : UTF-8
Codec ID : S_TEXT/UTF8
Codec ID/Info : UTF-8 Plain Text
Title : Castilian
Language : Spanish
Default : No
Forced : No
Text #5
ID : 9
Format : UTF-8
Codec ID : S_TEXT/UTF8
Codec ID/Info : UTF-8 Plain Text
Title : Latin American
Language : Spanish
Default : No
Forced : No
Text #6
ID : 10
Format : UTF-8
Codec ID : S_TEXT/UTF8
Codec ID/Info : UTF-8 Plain Text
Title : Portuguese
Language : Portuguese
Default : No
Forced : No
Text #7
ID : 11
Format : UTF-8
Codec ID : S_TEXT/UTF8
Codec ID/Info : UTF-8 Plain Text
Title : Polish
Language : Polish
Default : No
Forced : No
Menu
00:00:00.000 : en:Chapter 01
00:04:32.313 : en:Chapter 02
00:05:31.914 : en:Chapter 03
00:10:26.292 : en:Chapter 04
00:14:15.062 : en:Chapter 05
00:17:28.756 : en:Chapter 06
00:21:58.483 : en:Chapter 07
00:24:29.593 : en:Chapter 08
00:26:11.611 : en:Chapter 09
00:28:55.984 : en:Chapter 10
00:32:10.595 : en:Chapter 11
00:34:36.532 : en:Chapter 12
00:37:59.527 : en:Chapter 13
00:44:05.893 : en:Chapter 14
00:46:59.817 : en:Chapter 15
00:52:18.093 : en:Chapter 16
00:55:43.798 : en:Chapter 17
01:02:57.231 : en:Chapter 18
01:06:26.649 : en:Chapter 19
01:11:34.456 : en:Chapter 20
01:15:37.741 : en:Chapter 21
01:20:22.859 : en:Chapter 22
01:23:46.563 : en:Chapter 23
01:27:22.695 : en:Chapter 24
01:31:01.539 : en:Chapter 25
01:33:27.476 : en:Chapter 26
Показать сообщения:    

Текущее время: 23-Окт 18:00

Часовой пояс: UTC - 1


Вы не можете начинать темы
Вы не можете отвечать на сообщения
Вы не можете редактировать свои сообщения
Вы не можете удалять свои сообщения
Вы не можете голосовать в опросах
Вы не можете прикреплять файлы к сообщениям
Вы не можете скачивать файлы

!ВНИМАНИЕ!
Сайт не предоставляет электронные версии произведений, а занимается лишь коллекционированием и каталогизацией ссылок, присылаемых и публикуемых на форуме нашими читателями. Если вы являетесь правообладателем какого-либо представленного материала и не желаете, чтобы ссылка на него находилась в нашем каталоге, свяжитесь с нами, и мы незамедлительно удалим ее. Файлы для обмена на трекере предоставлены пользователями сайта, и администрация не несет ответственности за их содержание. Просьба не заливать файлы, защищенные авторскими правами, а также файлы нелегального содержания!